<?xml version="1.0" standalone="no"?>
<!DOCTYPE svg PUBLIC "-//W3C//DTD SVG 1.1//EN" "http://www.w3.org/Graphics/SVG/1.1/DTD/svg11.dtd" >
<svg xmlns="http://www.w3.org/2000/svg" xmlns:xlink="http://www.w3.org/1999/xlink" version="1.1">
<metadata>
Created by FontForge 20201107 at Thu Feb  7 19:13:54 2002
 By Jimmy Wärting
Copyright 1993 , 2002Adobe Systems Incorporated. All Rights Reserved. ITC Officina Sans is a trademark of International Typeface Corporation.
</metadata>
<defs>
<font id="OfficinaSansStd-Bold" horiz-adv-x="556" >
  <font-face 
    font-family="ITC Officina Sans Std"
    font-weight="700"
    font-stretch="normal"
    units-per-em="1000"
    panose-1="0 0 8 0 0 0 0 0 0 0"
    ascent="724"
    descent="-276"
    x-height="494"
    cap-height="685"
    bbox="-55 -261 1137 964"
    underline-thickness="50"
    underline-position="-100"
    stemh="100"
    stemv="127"
    unicode-range="U+0020-FB02"
  />
<missing-glyph horiz-adv-x="500" 
d="M0 0v700h500v-700h-500zM250 395l170 255h-340zM280 350l170 -255v510zM80 50h340l-170 255zM50 605v-510l170 255z" />
    <glyph glyph-name="fi" unicode="fi" horiz-adv-x="611" 
d="M455 559c-46 0 -83 37 -83 83s37 82 83 82c45 0 82 -36 82 -82s-37 -83 -82 -83zM234 401v-380c0 -18 -4 -21 -21 -21h-85c-17 0 -21 3 -21 21v380h-71c-17 0 -21 3 -21 21v51c0 18 4 21 21 21h71v41c0 110 39 189 150 189c37 0 102 -16 102 -36c0 -3 -1 -6 -2 -9
l-18 -70c-1 -4 -5 -10 -9 -10c-7 0 -22 17 -50 17c-45 0 -46 -33 -46 -81v-41h271c12 0 14 -3 14 -14v-466c0 -11 -2 -14 -14 -14h-99c-12 0 -14 3 -14 14v387h-158z" />
    <glyph glyph-name="fl" unicode="fl" horiz-adv-x="630" 
d="M234 401v-380c0 -18 -4 -21 -21 -21h-85c-17 0 -21 3 -21 21v380h-71c-17 0 -21 3 -21 21v51c0 18 4 21 21 21h71v41c0 110 39 189 150 189c37 0 102 -16 102 -36c0 -3 -1 -6 -2 -9l-18 -70c-1 -4 -5 -10 -9 -10c-7 0 -22 17 -50 17c-45 0 -46 -33 -46 -81v-41h101
c9 0 17 -2 17 -10c0 -4 -1 -6 -2 -10l-14 -59c-3 -13 -9 -14 -19 -14h-83zM601 101l20 -82c1 -5 2 -5 2 -8c0 -14 -53 -28 -101 -28c-123 0 -123 101 -123 193v510c0 15 7 15 19 18l84 17c3 0 12 3 14 3c8 0 10 -4 10 -21v-545c0 -32 0 -60 28 -60c20 0 33 9 39 9
c4 0 7 -2 8 -6z" />
    <glyph glyph-name=".notdef" horiz-adv-x="500" 
d="M0 0v700h500v-700h-500zM250 395l170 255h-340zM280 350l170 -255v510zM80 50h340l-170 255zM50 605v-510l170 255z" />
    <glyph glyph-name="space" unicode=" " horiz-adv-x="296" 
 />
    <glyph glyph-name="exclam" unicode="!" horiz-adv-x="352" 
d="M247 669l-22 -391c-2 -19 -6 -20 -21 -20h-57c-15 0 -19 1 -21 20l-22 391c-1 17 -1 14 -1 20c0 13 10 13 18 13h107c8 0 20 0 20 -13c0 -6 0 -3 -1 -20zM260 67c0 -45 -38 -84 -84 -84c-48 0 -85 39 -85 84c0 48 37 85 85 85c47 0 84 -38 84 -85z" />
    <glyph glyph-name="quotedbl" unicode="&#x22;" horiz-adv-x="500" 
d="M220 694l-21 -229c-1 -17 -4 -20 -21 -20h-41c-17 0 -20 3 -21 20l-21 229c-1 3 -1 7 -1 10c0 13 10 13 20 13h87c10 0 20 0 20 -13c0 -3 0 -7 -1 -10zM405 694l-21 -229c-1 -17 -4 -20 -21 -20h-41c-17 0 -20 3 -21 20l-21 229c-1 3 -1 7 -1 10c0 13 10 13 20 13h87
c10 0 20 0 20 -13c0 -3 0 -7 -1 -10z" />
    <glyph glyph-name="numbersign" unicode="#" 
d="M394 144l-18 -177c-2 -17 -9 -19 -24 -19h-47c-10 0 -20 0 -20 14c0 3 0 5 1 8l18 174h-100l-17 -177c-2 -17 -10 -19 -25 -19h-45c-10 0 -20 0 -20 14v8l17 174h-39c-18 0 -21 3 -21 21v55c0 17 3 20 21 20h49l17 167h-39c-18 0 -21 3 -21 21v54c0 18 3 21 21 21h49
l17 163c2 17 9 19 24 19h45c9 0 21 0 21 -13c0 -3 -1 -6 -1 -8l-16 -161h99l17 163c2 17 8 19 23 19h47c7 0 20 0 20 -14c0 -2 0 -5 -1 -7l-16 -161h51c17 0 20 -3 20 -21v-54c0 -18 -3 -21 -20 -21h-60l-18 -167h51c17 0 20 -3 20 -20v-55c0 -17 -3 -21 -20 -21h-60z
M313 240l18 167h-100l-17 -167h99z" />
    <glyph glyph-name="dollar" unicode="$" 
d="M309 -11v-45c0 -17 -3 -20 -21 -20h-20c-18 0 -21 3 -21 20v45c-34 0 -174 23 -174 53c0 3 0 3 2 9l29 84c1 2 5 8 9 8c6 0 73 -39 134 -46v196c-61 27 -176 62 -176 194c0 147 130 189 176 191v49c0 17 3 20 21 20h20c18 0 21 -3 21 -20v-49c29 -2 157 -24 157 -58
c0 -4 -1 -7 -3 -11l-31 -68c-2 -5 -5 -8 -9 -8c-6 0 -71 40 -114 40v-185c65 -32 175 -75 175 -203c0 -139 -109 -185 -175 -196zM302 270v-173c29 8 67 27 67 82c0 58 -44 79 -67 91zM254 410v163c-20 -5 -68 -19 -68 -78c0 -54 46 -75 68 -85z" />
    <glyph glyph-name="percent" unicode="%" horiz-adv-x="833" 
d="M632 58c43 0 49 45 49 101c0 57 -7 101 -49 101s-49 -44 -49 -101c0 -56 6 -101 49 -101zM781 159c0 -105 -54 -176 -149 -176s-149 70 -149 176c0 105 54 176 149 176s149 -71 149 -176zM586 659l-236 -659c-4 -11 -11 -17 -23 -17h-51c-9 0 -21 0 -21 10c0 4 2 9 4 14
l237 662c5 14 15 16 23 16h51c10 0 19 -1 19 -12c0 -5 -1 -8 -3 -14zM348 492c0 -105 -54 -176 -149 -176s-149 70 -149 176c0 105 54 176 149 176s149 -71 149 -176zM199 391c43 0 49 45 49 101c0 57 -7 101 -49 101s-49 -44 -49 -101c0 -56 6 -101 49 -101z" />
    <glyph glyph-name="ampersand" unicode="&#x26;" horiz-adv-x="611" 
d="M595 34l-50 -45c-4 -3 -9 -6 -14 -6c-6 0 -11 6 -15 10l-56 64c-30 -28 -79 -74 -193 -74c-139 0 -228 71 -228 190c0 122 109 178 146 201c-19 22 -92 84 -92 159c0 106 102 169 196 169c100 0 179 -59 179 -159c0 -93 -97 -157 -127 -181l107 -126c41 78 24 134 41 134
c4 0 7 -1 11 -2l73 -20c10 -3 12 -9 12 -16c0 -61 -44 -159 -60 -183l71 -86c4 -5 9 -9 9 -14c0 -6 -6 -12 -10 -15zM280 431c22 20 68 52 68 104c0 44 -25 71 -65 71s-70 -29 -70 -71c0 -49 50 -84 67 -104zM385 143l-136 160c-21 -15 -75 -51 -75 -115
c0 -60 46 -100 101 -100c59 0 95 38 110 55z" />
    <glyph glyph-name="quoteright" unicode="&#x2019;" horiz-adv-x="222" 
d="M210 691l-119 -223c-4 -7 -7 -14 -14 -14c-5 0 -8 2 -12 3l-38 13c-8 3 -16 6 -16 13c0 5 1 7 3 13l62 204c4 13 9 17 22 17h97c10 0 20 -1 20 -11c0 -5 -3 -12 -5 -15z" />
    <glyph glyph-name="parenleft" unicode="(" horiz-adv-x="444" 
d="M406 -213c0 -11 -57 -48 -71 -48c-19 0 -217 232 -217 506s199 505 217 505c14 0 71 -37 71 -48c0 -29 -158 -171 -158 -457c0 -287 158 -429 158 -458z" />
    <glyph glyph-name="parenright" unicode=")" horiz-adv-x="444" 
d="M326 245c0 -274 -198 -506 -217 -506c-14 0 -71 37 -71 48c0 29 158 171 158 458c0 286 -158 428 -158 457c0 11 57 48 71 48c18 0 217 -231 217 -505z" />
    <glyph glyph-name="asterisk" unicode="*" 
d="M415 367l-52 -37c-5 -4 -10 -8 -15 -8c-6 0 -9 3 -14 14l-57 112l-56 -112c-5 -11 -8 -14 -14 -14c-5 0 -10 4 -15 8l-52 37c-5 3 -11 9 -11 15c0 5 5 11 9 15l90 86l-123 19c-10 1 -19 3 -19 12c0 4 2 9 3 13l20 61c3 9 6 16 13 16c5 0 10 -3 14 -5l111 -59l-21 123
c-1 5 -1 7 -1 11c0 11 11 11 20 11h65c9 0 20 0 20 -11c0 -4 0 -6 -1 -11l-21 -123l111 59c4 2 9 5 14 5c7 0 10 -7 13 -16l20 -61c1 -4 3 -9 3 -13c0 -9 -9 -11 -19 -12l-123 -19l90 -86c4 -4 9 -10 9 -15c0 -6 -6 -12 -11 -15z" />
    <glyph glyph-name="plus" unicode="+" 
d="M328 207v-160c0 -14 -3 -17 -17 -17h-66c-14 0 -17 3 -17 17v160h-160c-14 0 -17 3 -17 17v66c0 14 4 17 17 17h160v160c0 14 3 17 17 17h66c14 0 17 -3 17 -17v-160h160c14 0 17 -3 17 -17v-66c0 -14 -3 -17 -17 -17h-160z" />
    <glyph glyph-name="comma" unicode="," horiz-adv-x="296" 
d="M231 99l-119 -223c-4 -7 -7 -14 -14 -14c-5 0 -8 2 -12 3l-38 13c-8 3 -16 6 -16 13c0 5 1 7 3 13l62 204c4 13 9 17 22 17h97c10 0 20 -1 20 -11c0 -5 -3 -12 -5 -15z" />
    <glyph glyph-name="hyphen" unicode="-" horiz-adv-x="370" 
d="M328 292v-73c0 -18 -3 -21 -21 -21h-244c-18 0 -21 3 -21 21v73c0 18 3 21 21 21h244c18 0 21 -3 21 -21z" />
    <glyph glyph-name="period" unicode="." horiz-adv-x="296" 
d="M243 78c0 -53 -43 -95 -95 -95c-51 0 -95 42 -95 95s44 95 95 95c52 0 95 -42 95 -95z" />
    <glyph glyph-name="slash" unicode="/" horiz-adv-x="444" 
d="M410 696l-325 -889c-5 -14 -11 -19 -27 -19h-58c-9 0 -20 0 -20 12c0 5 2 12 3 15l326 891c5 14 13 18 27 18h59c11 0 18 -3 18 -12c0 -8 -1 -10 -3 -16z" />
    <glyph glyph-name="zero" unicode="0" 
d="M278 91c90 0 110 109 110 243s-20 243 -110 243c-89 0 -110 -109 -110 -243s21 -243 110 -243zM515 334c0 -228 -82 -351 -237 -351s-237 124 -237 351s80 351 237 351c154 0 237 -123 237 -351z" />
    <glyph glyph-name="one" unicode="1" 
d="M470 79v-65c0 -11 -2 -14 -14 -14h-307c-12 0 -14 3 -14 14v65c0 11 2 14 14 14h101v424l-106 -66c-5 -3 -9 -6 -14 -6c-6 0 -10 6 -14 13l-26 45c-3 4 -4 8 -4 13c0 6 5 11 12 16l189 136h70c18 0 20 -4 20 -20v-555h79c12 0 14 -3 14 -14z" />
    <glyph glyph-name="two" unicode="2" 
d="M476 94v-73c0 -18 -3 -21 -20 -21h-361c-10 0 -13 2 -13 17c0 108 17 139 29 164c56 125 251 170 251 309c0 59 -32 87 -82 87c-94 0 -91 -103 -116 -103c-4 0 -7 1 -11 3l-64 24c-6 2 -11 8 -11 15c0 39 57 169 214 169c119 0 190 -67 190 -190
c0 -150 -105 -200 -190 -270c-60 -50 -67 -71 -71 -110h235c18 0 20 -4 20 -21z" />
    <glyph glyph-name="three" unicode="3" 
d="M130 524l-55 49c-3 2 -5 6 -5 10c0 18 62 102 179 102c114 0 196 -69 196 -177c0 -95 -53 -128 -94 -149c39 -14 117 -47 117 -170c0 -129 -104 -206 -228 -206c-76 0 -190 32 -190 55c0 4 1 6 2 10l20 71c1 3 6 10 11 10c12 0 67 -41 146 -41c70 0 109 40 109 108
c0 92 -78 100 -124 100h-31c-17 0 -20 3 -20 20v67c0 18 3 21 20 21h33c47 0 109 12 109 94c0 48 -33 82 -83 82c-64 0 -90 -61 -103 -61c-4 0 -6 2 -9 5z" />
    <glyph glyph-name="four" unicode="4" 
d="M442 132v-129c0 -17 -3 -20 -20 -20h-87c-17 0 -20 3 -20 20v129h-244c-18 0 -21 3 -21 20v105l249 415c4 7 8 13 13 13s9 -2 14 -4l60 -25c8 -3 15 -6 15 -14c0 -5 -3 -9 -6 -14l-233 -396h153l16 161c1 16 4 20 21 20h70c17 0 20 -3 20 -21v-160h56c18 0 21 -1 21 -24
v-56c0 -17 -3 -20 -21 -20h-56z" />
    <glyph glyph-name="five" unicode="5" 
d="M218 563l-17 -159c14 9 42 30 102 30c122 0 191 -95 191 -207c0 -141 -96 -244 -259 -244c-67 0 -165 19 -165 45c0 4 1 8 1 11l14 73c1 4 5 9 9 9c9 0 72 -30 136 -30c96 0 149 57 149 134c0 62 -33 104 -101 104c-81 0 -99 -54 -113 -54c-4 0 -8 2 -11 3l-60 19
c-10 3 -16 5 -16 13c0 3 0 7 1 10l31 329c2 19 5 19 21 19h293c18 0 21 -3 21 -20v-64c0 -18 -3 -21 -21 -21h-206z" />
    <glyph glyph-name="six" unicode="6" 
d="M460 644l-21 -70c-1 -4 -6 -10 -10 -10c-8 0 -34 16 -69 16c-126 0 -158 -136 -167 -170l2 -2c15 19 46 59 118 59c93 0 182 -67 182 -234c0 -155 -84 -250 -215 -250c-124 0 -214 84 -214 293c0 274 129 409 299 409c57 0 97 -20 97 -32c0 -3 -1 -6 -2 -9zM284 91
c56 0 91 48 91 137s-32 134 -89 134c-55 0 -90 -42 -90 -134c0 -88 29 -137 88 -137z" />
    <glyph glyph-name="seven" unicode="7" 
d="M484 609l-223 -611c-4 -10 -6 -15 -14 -15c-3 0 -7 0 -11 1l-83 16c-14 3 -20 5 -20 13c0 4 1 8 3 13l212 527h-245c-18 0 -21 3 -21 21v74c0 17 3 20 21 20h361c17 0 20 -3 20 -20v-39z" />
    <glyph glyph-name="eight" unicode="8" 
d="M512 177c0 -95 -77 -194 -236 -194c-132 0 -233 66 -233 191c0 115 101 161 142 177c-39 18 -117 59 -117 159c0 94 84 175 210 175c117 0 208 -73 208 -174c0 -94 -78 -138 -113 -157c49 -23 139 -70 139 -177zM282 399c25 11 77 32 77 98c0 45 -31 83 -82 83
c-49 0 -82 -37 -82 -82c0 -67 62 -89 87 -99zM277 88c63 0 108 39 108 92c0 82 -86 112 -114 124c-23 -12 -101 -46 -101 -123c0 -60 47 -93 107 -93z" />
    <glyph glyph-name="nine" unicode="9" 
d="M92 24l21 70c1 4 6 10 10 10c8 0 34 -16 69 -16c126 0 158 136 167 170l-2 2c-15 -19 -46 -59 -118 -59c-93 0 -182 67 -182 234c0 155 84 250 215 250c124 0 214 -84 214 -293c0 -274 -129 -409 -299 -409c-57 0 -97 20 -97 32c0 3 1 6 2 9zM266 306c55 0 90 42 90 134
c0 88 -29 137 -88 137c-56 0 -91 -48 -91 -137s32 -134 89 -134z" />
    <glyph glyph-name="colon" unicode=":" horiz-adv-x="296" 
d="M243 78c0 -53 -43 -95 -95 -95c-51 0 -95 42 -95 95s44 95 95 95c52 0 95 -42 95 -95zM243 399c0 -53 -43 -95 -95 -95c-51 0 -95 42 -95 95s44 95 95 95c52 0 95 -42 95 -95z" />
    <glyph glyph-name="semicolon" unicode=";" horiz-adv-x="296" 
d="M231 99l-119 -223c-4 -7 -7 -14 -14 -14c-5 0 -8 2 -12 3l-38 13c-8 3 -16 6 -16 13c0 5 1 7 3 13l62 204c4 13 9 17 22 17h97c10 0 20 -1 20 -11c0 -5 -3 -12 -5 -15zM243 399c0 -53 -43 -95 -95 -95c-51 0 -95 42 -95 95s44 95 95 95c52 0 95 -42 95 -95z" />
    <glyph glyph-name="less" unicode="&#x3c;" 
d="M199 257l296 -94c8 -3 8 -7 8 -12c0 -3 0 -6 -1 -8l-17 -60c-3 -11 -7 -11 -9 -11s-5 1 -8 2l-407 136c-8 2 -11 4 -11 15v63c0 13 2 15 11 18l407 135c1 0 6 2 8 2c5 0 6 0 9 -10l17 -60s1 -5 1 -8c0 -4 0 -10 -8 -12l-296 -94v-2z" />
    <glyph glyph-name="equal" unicode="=" 
d="M505 210v-66c0 -14 -3 -17 -17 -17h-420c-14 0 -17 3 -17 17v66c0 14 4 17 17 17h420c14 0 17 -3 17 -17zM505 369v-66c0 -14 -3 -17 -17 -17h-420c-14 0 -17 3 -17 17v66c0 14 4 17 17 17h420c14 0 17 -3 17 -17z" />
    <glyph glyph-name="greater" unicode="&#x3e;" 
d="M355 259l-296 94c-8 2 -8 8 -8 12c0 3 1 8 1 8l17 60c3 10 4 10 9 10c2 0 7 -2 8 -2l407 -135c9 -3 11 -5 11 -18v-63c0 -11 -3 -13 -11 -15l-407 -135c-2 -1 -6 -2 -8 -2s-6 0 -9 10l-17 60c0 2 -1 5 -1 8c0 5 0 9 8 12l296 94v2z" />
    <glyph glyph-name="question" unicode="?" horiz-adv-x="500" 
d="M279 332v-68c0 -18 -3 -21 -21 -21h-73c-18 0 -21 3 -21 21v125c0 24 36 28 71 40c36 13 71 33 71 87c0 46 -29 71 -83 71c-62 0 -115 -33 -125 -33c-5 0 -10 5 -11 10l-26 68c-2 4 -2 7 -2 11c0 26 119 59 186 59c121 0 196 -78 196 -187c0 -129 -103 -163 -162 -183z
M309 67c0 -45 -38 -84 -84 -84c-48 0 -85 39 -85 84c0 48 37 85 85 85c47 0 84 -38 84 -85z" />
    <glyph glyph-name="at" unicode="@" horiz-adv-x="1000" 
d="M801 -30l16 -41c1 -4 3 -7 3 -12c0 -21 -150 -87 -334 -87c-258 0 -400 135 -400 365c0 272 213 473 478 473c223 0 351 -125 351 -305c0 -198 -144 -308 -278 -308c-73 0 -86 42 -92 69c-17 -23 -52 -69 -117 -69c-58 0 -93 41 -93 122c0 137 82 260 182 260
c47 0 70 -26 78 -34l5 11c3 8 9 10 16 10h66c8 0 12 -5 12 -10c0 -4 -1 -7 -1 -10l-45 -213c-2 -9 -3 -18 -3 -26c0 -23 17 -28 35 -28c65 0 145 76 145 221c0 135 -91 235 -266 235c-225 0 -383 -171 -383 -401c0 -183 112 -287 307 -287c193 0 289 73 308 73
c5 0 7 -2 10 -8zM549 228l24 112c-11 11 -23 22 -48 22c-55 0 -82 -116 -82 -188c0 -23 7 -37 27 -37c47 0 70 52 79 91z" />
    <glyph glyph-name="A" unicode="A" horiz-adv-x="593" 
d="M352 273l-41 172c-9 39 -17 98 -22 140h-2c-4 -42 -13 -100 -23 -140l-44 -172h132zM205 183l-41 -162c-4 -18 -6 -21 -21 -21h-101c-13 0 -19 2 -20 9c0 5 3 13 4 17l197 644c4 13 5 15 22 15h104c15 0 17 -4 21 -16l196 -645c1 -4 4 -12 4 -16c0 -6 -10 -8 -20 -8h-112
c-10 0 -12 3 -17 21l-44 162h-172z" />
    <glyph glyph-name="B" unicode="B" horiz-adv-x="574" 
d="M223 402h31c59 0 109 15 109 94c0 63 -43 84 -98 84h-42v-178zM223 105h36c69 0 127 12 127 97c0 84 -58 95 -125 95h-38v-192zM109 685h156c97 0 233 -14 233 -175c0 -100 -64 -132 -102 -151c47 -13 125 -50 125 -165c0 -167 -119 -194 -248 -194h-164
c-17 0 -21 4 -21 21v643c0 18 4 21 21 21z" />
    <glyph glyph-name="C" unicode="C" horiz-adv-x="500" 
d="M438 118l31 -56c3 -6 5 -10 5 -15c0 -17 -68 -64 -166 -64c-175 0 -259 114 -259 354c0 230 86 365 259 365c75 0 164 -55 164 -74c0 -4 0 -8 -5 -15l-37 -56c-4 -6 -8 -10 -12 -10c-17 0 -50 47 -103 47c-86 0 -124 -59 -124 -231c0 -170 21 -272 124 -272
c56 0 92 37 112 37c4 0 7 -3 11 -10z" />
    <glyph glyph-name="D" unicode="D" horiz-adv-x="593" 
d="M107 685h155c191 0 291 -62 291 -339c0 -287 -116 -346 -294 -346h-153c-17 0 -21 4 -21 21v643c0 18 4 21 22 21zM220 108h36c113 0 155 49 155 240c0 179 -43 229 -155 229h-36v-469z" />
    <glyph glyph-name="E" unicode="E" horiz-adv-x="481" 
d="M446 87v-66c0 -18 -3 -21 -20 -21h-329c-17 0 -21 3 -21 21v643c0 18 4 21 21 21h328c20 0 25 -2 25 -11c0 -5 -1 -7 -3 -14l-19 -67c-4 -15 -15 -16 -23 -16h-194v-165h170c18 0 21 -3 21 -21v-66c0 -18 -4 -21 -21 -21h-170v-196h214c18 0 21 -3 21 -21z" />
    <glyph glyph-name="F" unicode="F" horiz-adv-x="463" 
d="M220 304v-283c0 -18 -3 -21 -20 -21h-94c-17 0 -21 3 -21 21v643c0 18 4 21 21 21h328c20 0 25 -2 25 -11c0 -5 -1 -7 -3 -14l-19 -67c-4 -15 -15 -16 -23 -16h-194v-165h170c18 0 21 -3 21 -21v-66c0 -18 -4 -21 -21 -21h-170z" />
    <glyph glyph-name="G" unicode="G" horiz-adv-x="574" 
d="M517 339v-278c0 -42 -118 -78 -200 -78c-176 0 -268 114 -268 356c0 237 91 363 270 363c90 0 186 -44 186 -61c0 -3 -1 -7 -5 -15l-33 -66c-3 -6 -7 -10 -11 -10c-6 0 -62 44 -130 44c-102 0 -135 -95 -135 -248c0 -156 26 -255 134 -255c37 0 63 12 72 16v145h-75
c-17 0 -21 3 -21 21v66c0 18 4 21 21 21h174c17 0 21 -3 21 -21z" />
    <glyph glyph-name="H" unicode="H" horiz-adv-x="630" 
d="M545 664v-643c0 -18 -4 -21 -21 -21h-93c-17 0 -21 3 -21 21v279h-190v-279c0 -18 -4 -21 -21 -21h-93c-17 0 -21 3 -21 21v643c0 18 4 21 21 21h93c17 0 21 -3 21 -21v-256h190v256c0 18 4 21 21 21h93c17 0 21 -3 21 -21z" />
    <glyph glyph-name="I" unicode="I" horiz-adv-x="370" 
d="M328 75v-54c0 -18 -4 -21 -21 -21h-245c-17 0 -21 3 -21 21v54c0 18 4 21 21 21h55v493h-55c-17 0 -21 3 -21 21v54c0 18 4 21 21 21h245c17 0 21 -3 21 -21v-54c0 -18 -4 -21 -21 -21h-55v-493h55c17 0 21 -3 21 -21z" />
    <glyph glyph-name="J" unicode="J" horiz-adv-x="444" 
d="M369 664v-453c0 -123 -33 -228 -192 -228c-153 0 -180 122 -180 206c0 12 3 13 9 13h99c8 0 12 -3 12 -14c0 -24 -6 -97 61 -97c56 0 56 44 56 101v397h-137c-17 0 -21 3 -21 21v54c0 18 4 21 21 21h251c17 0 21 -3 21 -21z" />
    <glyph glyph-name="K" unicode="K" horiz-adv-x="574" 
d="M220 302v-281c0 -18 -4 -21 -21 -21h-93c-17 0 -21 3 -21 21v643c0 18 4 21 21 21h93c17 0 21 -3 21 -21v-280h2l220 305c3 5 11 13 17 13c5 0 10 -4 18 -8l68 -34c6 -3 13 -9 13 -12c0 -10 -4 -12 -7 -16l-213 -281l235 -292c3 -4 7 -6 7 -16c0 -3 -7 -9 -13 -12
l-80 -40c-8 -4 -13 -8 -18 -8c-6 0 -14 8 -17 13l-230 306h-2z" />
    <glyph glyph-name="L" unicode="L" horiz-adv-x="500" 
d="M478 94l-19 -76c-4 -16 -7 -18 -22 -18h-330c-17 0 -21 3 -21 21v643c0 18 4 21 21 21h93c17 0 21 -3 21 -21v-544h241c14 0 18 -5 18 -13c0 -3 -1 -9 -2 -13z" />
    <glyph glyph-name="M" unicode="M" horiz-adv-x="704" 
d="M607 653l28 -632c0 -18 -4 -21 -21 -21h-88c-17 0 -21 3 -21 21l-8 339c-1 36 -2 124 -2 160h-2c-6 -36 -24 -121 -35 -157l-61 -195c-4 -14 -5 -17 -22 -17h-62c-17 0 -18 3 -22 17l-58 195c-11 36 -29 121 -35 157h-2c0 -36 -1 -124 -2 -160l-10 -339
c-1 -18 -4 -21 -21 -21h-73c-17 0 -22 3 -21 21l28 643c0 18 4 21 21 21h96c16 0 17 -1 22 -16l81 -252c13 -40 24 -81 30 -120h2c6 39 10 54 32 120l85 252c5 14 6 16 24 16h96c17 0 19 -5 21 -32z" />
    <glyph glyph-name="N" unicode="N" horiz-adv-x="630" 
d="M547 664v-643c0 -18 -3 -21 -21 -21h-66c-14 0 -17 2 -23 14l-183 341c-30 56 -47 91 -57 136h-2c0 -13 3 -64 3 -110v-360c0 -18 -4 -21 -21 -21h-73c-17 0 -21 3 -21 21v643c0 18 4 21 21 21h82c15 0 17 -2 23 -13l165 -310c28 -53 47 -104 59 -145h2
c0 32 -3 102 -3 130v317c0 18 4 21 21 21h73c17 0 21 -3 21 -21z" />
    <glyph glyph-name="O" unicode="O" horiz-adv-x="593" 
d="M545 342c0 -242 -94 -359 -249 -359s-249 117 -249 359c0 243 95 360 249 360s249 -118 249 -360zM296 88c75 0 107 98 107 254c0 157 -32 255 -107 255s-107 -99 -107 -255s32 -254 107 -254z" />
    <glyph glyph-name="P" unicode="P" horiz-adv-x="519" 
d="M211 379h31c59 0 115 10 115 111c0 87 -53 90 -105 90h-41v-201zM211 274v-253c0 -18 -4 -21 -21 -21h-93c-17 0 -21 3 -21 21v643c0 18 4 21 21 21h162c81 0 233 0 233 -188c0 -165 -123 -223 -228 -223h-53z" />
    <glyph glyph-name="Q" unicode="Q" horiz-adv-x="593" 
d="M571 -26l-77 -55c-2 -1 -6 -2 -9 -2c-26 0 -91 67 -103 80c-12 -5 -25 -9 -39 -11c-15 -2 -30 -3 -46 -3c-155 0 -249 117 -249 359c0 243 95 360 249 360s249 -118 249 -360c0 -139 -29 -228 -73 -278c24 -21 102 -71 102 -83c0 -2 -2 -5 -4 -7zM297 88
c75 0 107 98 107 254c0 157 -32 255 -107 255s-107 -99 -107 -255s32 -254 107 -254z" />
    <glyph glyph-name="R" unicode="R" 
d="M214 388h26c65 0 120 10 120 102c0 87 -57 90 -109 90h-37v-192zM214 283v-262c0 -18 -4 -21 -21 -21h-93c-17 0 -21 3 -21 21v643c0 18 4 21 21 21h162c77 0 233 -5 233 -193c0 -129 -77 -166 -114 -185l149 -267c3 -5 8 -13 8 -19s-10 -9 -20 -12l-84 -24
c-4 -1 -10 -2 -14 -2c-5 0 -13 12 -23 31l-135 269h-48z" />
    <glyph glyph-name="S" unicode="S" horiz-adv-x="481" 
d="M437 626l-33 -66c-3 -6 -7 -10 -11 -10c-6 0 -68 44 -140 44c-46 0 -94 -18 -94 -78c0 -76 117 -90 205 -155c51 -38 86 -91 86 -167c0 -127 -90 -211 -216 -211c-102 0 -209 44 -209 60c0 3 3 10 5 16l23 66c2 6 7 10 11 10c6 0 80 -44 166 -44c56 0 90 30 90 92
c0 89 -102 98 -204 160c-53 32 -87 72 -87 155c0 144 104 204 220 204c95 0 193 -44 193 -61c0 -3 -1 -7 -5 -15z" />
    <glyph glyph-name="T" unicode="T" horiz-adv-x="444" 
d="M285 565v-544c0 -18 -4 -21 -21 -21h-93c-17 0 -21 3 -21 21v544h-131c-14 0 -17 3 -17 17v86c0 14 3 17 17 17h412c20 0 25 -2 25 -11c0 -5 -1 -7 -3 -14l-21 -79c-4 -16 -15 -16 -23 -16h-124z" />
    <glyph glyph-name="U" unicode="U" horiz-adv-x="630" 
d="M556 664v-432c0 -149 -52 -249 -241 -249s-241 100 -241 249v432c0 18 4 21 21 21h93c17 0 21 -3 21 -21v-432c0 -72 5 -141 106 -141s106 69 106 141v432c0 18 4 21 21 21h93c17 0 21 -3 21 -21z" />
    <glyph glyph-name="V" unicode="V" 
d="M535 649l-181 -641c-4 -14 -5 -17 -22 -17h-114c-17 0 -19 3 -22 17l-176 635c-2 7 -5 15 -5 21c0 7 11 9 19 11l100 17c4 0 7 2 15 2c5 0 11 0 15 -20l85 -402c7 -32 19 -107 25 -153h2c6 46 22 121 30 153l97 402c5 20 10 20 15 20c8 0 11 -2 15 -2l88 -11
c8 -2 19 -4 19 -11c0 -6 -3 -14 -5 -21z" />
    <glyph glyph-name="W" unicode="W" horiz-adv-x="796" 
d="M585 350l60 324c4 20 10 20 15 20c6 0 11 -1 15 -2l75 -15c8 -2 19 -4 19 -10c0 -5 -3 -15 -5 -22l-146 -636c-4 -14 -7 -18 -22 -18h-86c-18 0 -19 3 -22 18l-66 336c-9 45 -18 107 -23 173h-2c-5 -67 -14 -127 -25 -173l-81 -336c-4 -15 -4 -18 -22 -18h-86
c-15 0 -19 4 -22 18l-130 637c-1 7 -4 16 -4 22s11 8 19 10l78 14c4 1 9 2 15 2c5 0 11 0 15 -20l60 -324c10 -55 18 -138 22 -189h2c6 57 20 138 32 189l71 305c5 21 6 30 30 30h68c16 0 17 -9 22 -30l71 -305c12 -51 22 -132 28 -189h2c4 51 13 134 23 189z" />
    <glyph glyph-name="X" unicode="X" horiz-adv-x="536" 
d="M507 17l-88 -24c-4 -1 -6 -2 -13 -2c-3 0 -8 0 -18 20l-86 169c-9 18 -24 50 -29 67h-2c-3 -16 -21 -49 -31 -68l-90 -171c-9 -17 -12 -17 -15 -17c-6 0 -11 1 -15 2l-91 21c-8 2 -21 4 -21 12c0 6 3 12 7 20l186 317l-169 276c-5 8 -9 15 -9 19c0 8 8 10 18 12l100 22
c4 1 7 2 13 2c5 0 8 -2 13 -12l74 -148c10 -21 24 -51 30 -76h2c5 25 18 55 28 76l65 140c8 17 12 20 17 20c4 0 9 -1 13 -2l88 -24c7 -2 23 -5 23 -12c0 -6 -5 -12 -9 -20l-155 -273l178 -314c5 -7 7 -13 7 -20s-14 -10 -21 -12z" />
    <glyph glyph-name="Y" unicode="Y" horiz-adv-x="519" 
d="M328 281v-260c0 -18 -4 -21 -21 -21h-93c-17 0 -21 3 -21 21v260l-188 364c-4 7 -7 14 -7 21c0 6 8 9 21 11l100 16c6 1 10 1 11 1c4 0 10 -2 15 -13l81 -171c11 -24 26 -57 40 -109h2c18 59 31 90 44 117l74 156c9 20 12 20 17 20c4 0 10 -1 15 -2l85 -18
c9 -2 18 -6 18 -13c0 -4 -3 -8 -7 -16z" />
    <glyph glyph-name="Z" unicode="Z" horiz-adv-x="500" 
d="M482 96l-11 -78c-3 -17 -5 -18 -22 -18h-401c-14 0 -17 3 -17 17v83l269 465h-246c-11 0 -14 5 -14 12c0 4 0 4 2 12l20 78c4 15 5 18 22 18h344c18 0 21 -3 21 -20v-90l-267 -455h288c9 -2 14 -5 14 -12c0 -2 -1 -5 -2 -12z" />
    <glyph glyph-name="bracketleft" unicode="[" horiz-adv-x="426" 
d="M366 -118v-63c0 -18 -3 -21 -21 -21h-195c-18 0 -21 3 -21 21v877c0 18 3 21 21 21h195c18 0 21 -3 21 -21v-63c0 -18 -3 -21 -21 -21h-89v-709h89c18 0 21 -3 21 -21z" />
    <glyph glyph-name="backslash" unicode="\" horiz-adv-x="444" 
d="M143 706l326 -891c1 -3 3 -10 3 -15c0 -12 -11 -12 -20 -12h-58c-16 0 -22 5 -27 19l-325 889c-2 6 -3 8 -3 16c0 9 7 12 18 12h59c14 0 22 -4 27 -18z" />
    <glyph glyph-name="bracketright" unicode="]" horiz-adv-x="426" 
d="M297 696v-877c0 -18 -3 -21 -21 -21h-195c-18 0 -21 3 -21 21v63c0 18 3 21 21 21h89v709h-89c-18 0 -21 3 -21 21v63c0 18 3 21 21 21h195c18 0 21 -3 21 -21z" />
    <glyph glyph-name="asciicircum" unicode="^" 
d="M453 336l-60 -13c-3 -1 -5 -1 -8 -1c-4 0 -10 -1 -13 7l-94 237l-94 -237c-3 -8 -9 -7 -13 -7c-3 0 -5 0 -8 1l-60 13c-10 2 -10 6 -10 9c0 2 4 9 5 12l131 319c3 7 5 9 16 9h66c11 0 13 -2 16 -9l131 -319c1 -3 5 -10 5 -12c0 -3 0 -7 -10 -9z" />
    <glyph glyph-name="underscore" unicode="_" horiz-adv-x="500" 
d="M500 -75v-50h-500v50h500z" />
    <glyph glyph-name="quoteleft" unicode="&#x2018;" horiz-adv-x="222" 
d="M208 675l-62 -204c-4 -13 -9 -17 -22 -17h-97c-10 0 -20 1 -20 11c0 5 3 12 5 15l119 223c4 7 7 14 14 14c5 0 8 -2 12 -3l38 -13c8 -3 16 -6 16 -13c0 -5 -1 -7 -3 -13z" />
    <glyph glyph-name="a" unicode="a" horiz-adv-x="481" 
d="M433 18l-76 -31c-4 -1 -9 -4 -13 -4c-9 0 -24 35 -29 60c-20 -20 -55 -60 -130 -60c-92 0 -150 60 -150 154c0 169 182 169 261 169v31c0 45 -8 74 -71 74c-56 0 -111 -30 -124 -30c-5 0 -9 6 -10 10l-20 61c-2 4 -3 8 -3 12c0 23 99 47 176 47c125 0 172 -57 172 -161
v-193c0 -97 26 -110 26 -130c0 -4 -4 -7 -9 -9zM296 114v110c-25 0 -141 8 -141 -80c0 -39 28 -68 66 -68c37 0 63 26 75 38z" />
    <glyph glyph-name="b" unicode="b" horiz-adv-x="537" 
d="M204 377v-273c6 -5 23 -21 50 -21c91 0 109 93 109 171c0 80 -14 157 -90 157c-34 0 -56 -23 -69 -34zM204 703v-236c20 15 56 44 111 44c136 0 175 -120 175 -250c0 -170 -73 -278 -207 -278c-57 0 -79 28 -95 44c-4 -11 -14 -44 -29 -44c-5 0 -10 1 -14 2l-80 20
c-5 1 -10 4 -10 8c0 9 11 18 18 52c4 20 4 41 4 62v559c0 15 7 15 19 18l84 17c3 0 12 3 14 3c8 0 10 -4 10 -21z" />
    <glyph glyph-name="c" unicode="c" horiz-adv-x="426" 
d="M375 112l26 -66c1 -3 3 -7 3 -10c0 -24 -81 -53 -141 -53c-139 0 -222 85 -222 254s85 274 233 274c54 0 142 -30 142 -61c0 -3 -2 -6 -3 -9l-37 -65c-2 -2 -4 -5 -7 -5c-10 0 -43 40 -95 40c-68 0 -98 -52 -98 -167c0 -110 26 -161 103 -161c51 0 71 34 89 34
c3 0 5 -2 7 -5z" />
    <glyph glyph-name="d" unicode="d" horiz-adv-x="519" 
d="M327 118v273c-9 5 -26 20 -68 20c-75 0 -90 -56 -90 -167c0 -113 19 -161 84 -161c45 0 62 22 74 35zM463 18l-76 -31c-4 -1 -9 -4 -13 -4c-9 0 -24 35 -29 60c-16 -15 -60 -60 -132 -60c-114 0 -171 92 -171 244c0 189 68 284 192 284c54 0 77 -19 93 -30v205
c0 15 7 15 19 18l84 17c3 0 12 3 14 3c8 0 10 -4 10 -21v-546c0 -97 18 -110 18 -130c0 -4 -4 -7 -9 -9z" />
    <glyph glyph-name="e" unicode="e" horiz-adv-x="500" 
d="M416 113l25 -60c2 -3 3 -7 3 -11c0 -26 -100 -59 -179 -59c-132 0 -224 75 -224 259c0 159 85 269 219 269c170 0 200 -152 200 -273c0 -19 -4 -25 -23 -25h-269c0 -56 16 -125 110 -125c72 0 113 33 127 33c5 0 9 -4 11 -8zM168 306h157c0 41 -3 112 -72 112
c-78 0 -82 -84 -85 -112z" />
    <glyph glyph-name="f" unicode="f" horiz-adv-x="370" 
d="M234 401v-380c0 -18 -4 -21 -21 -21h-85c-17 0 -21 3 -21 21v380h-71c-17 0 -21 3 -21 21v51c0 18 4 21 21 21h71v41c0 110 40 189 160 189c45 0 122 -16 122 -36c0 -3 -1 -6 -2 -9l-18 -70c-1 -4 -5 -10 -9 -10c-11 0 -32 17 -70 17c-54 0 -56 -33 -56 -81v-41h114
c9 0 17 -2 17 -10c0 -4 -1 -6 -2 -10l-14 -59c-3 -13 -9 -14 -19 -14h-96z" />
    <glyph glyph-name="g" unicode="g" horiz-adv-x="500" 
d="M442 343v-149c0 -66 5 -169 5 -225c0 -109 -54 -181 -193 -181c-78 0 -207 32 -207 53c0 7 1 11 4 20l19 61c2 7 6 10 11 10c12 0 73 -39 162 -39c70 0 82 29 82 85c0 35 -3 59 -3 66c-15 -10 -53 -38 -121 -38c-112 0 -171 94 -171 244c0 161 70 261 189 261
c71 0 100 -31 119 -47c3 9 21 47 35 47c3 0 7 -1 10 -2l78 -29c4 -2 9 -5 9 -9c0 -13 -28 -49 -28 -128zM322 140v236c-13 10 -34 30 -79 30c-60 0 -86 -56 -86 -152c0 -91 20 -148 80 -148c51 0 75 25 85 34z" />
    <glyph glyph-name="h" unicode="h" horiz-adv-x="537" 
d="M467 353v-339c0 -11 -2 -14 -14 -14h-99c-12 0 -14 3 -14 14v308c0 38 -5 84 -56 84c-42 0 -72 -30 -85 -42v-350c0 -11 -2 -14 -14 -14h-99c-12 0 -14 3 -14 14v672c0 15 7 15 19 18l84 17c3 0 12 3 14 3c8 0 10 -4 10 -21v-249c27 22 67 57 138 57
c106 0 130 -71 130 -158z" />
    <glyph glyph-name="i" unicode="i" horiz-adv-x="315" 
d="M234 480v-466c0 -11 -2 -14 -14 -14h-99c-12 0 -14 3 -14 14v387h-77c-12 0 -14 3 -14 14v65c0 11 2 14 14 14h190c12 0 14 -3 14 -14zM252 642c0 -46 -37 -83 -82 -83c-46 0 -83 37 -83 83s37 82 83 82c45 0 82 -36 82 -82z" />
    <glyph glyph-name="j" unicode="j" horiz-adv-x="315" 
d="M240 480v-486c0 -142 -25 -229 -171 -229c-50 0 -110 12 -110 28c0 3 1 7 2 10l22 75c1 3 5 6 8 6c7 0 33 -14 64 -14c56 0 58 55 58 126v405h-78c-12 0 -14 3 -14 14v65c0 11 2 14 14 14h191c12 0 14 -3 14 -14zM257 642c0 -46 -37 -83 -82 -83c-46 0 -83 37 -83 83
s37 82 83 82c45 0 82 -36 82 -82z" />
    <glyph glyph-name="k" unicode="k" horiz-adv-x="519" 
d="M312 277l182 -219c5 -5 9 -11 9 -15s-1 -7 -5 -9l-85 -47c-4 -2 -8 -4 -12 -4s-9 6 -12 10l-183 239h-2v-218c0 -11 -2 -14 -14 -14h-99c-12 0 -14 3 -14 14v672c0 14 7 16 19 18l84 17c3 1 13 3 16 3c6 0 8 -4 8 -21v-396l192 194c3 4 11 10 14 10c6 0 10 -5 18 -11
l50 -41c4 -4 5 -7 5 -11s-4 -8 -9 -13z" />
    <glyph glyph-name="l" unicode="l" horiz-adv-x="296" 
d="M267 101l20 -82c1 -5 2 -5 2 -8c0 -14 -53 -28 -101 -28c-123 0 -123 101 -123 193v510c0 15 7 15 19 18l84 17c3 0 12 3 14 3c8 0 10 -4 10 -21v-545c0 -32 0 -60 28 -60c20 0 33 9 39 9c4 0 7 -2 8 -6z" />
    <glyph glyph-name="m" unicode="m" horiz-adv-x="778" 
d="M713 353v-339c0 -11 -2 -14 -14 -14h-99c-12 0 -14 3 -14 14v308c0 38 -4 84 -42 84c-42 0 -75 -29 -88 -41v-351c0 -11 -2 -14 -14 -14h-99c-12 0 -14 3 -14 14v308c0 38 -4 84 -42 84c-42 0 -75 -29 -88 -41v-351c0 -11 -2 -14 -14 -14h-99c-12 0 -14 3 -14 14v302
c0 141 -19 133 -19 156c0 5 4 9 11 11l76 25c6 2 11 3 15 3c13 0 21 -22 32 -69c30 26 74 69 153 69c43 0 90 -27 102 -69c30 26 73 69 155 69c94 0 116 -71 116 -158z" />
    <glyph glyph-name="n" unicode="n" horiz-adv-x="537" 
d="M467 365v-351c0 -11 -2 -14 -14 -14h-99c-12 0 -14 3 -14 14v308c0 38 -5 84 -56 84c-42 0 -75 -29 -88 -41v-351c0 -11 -2 -14 -14 -14h-99c-12 0 -14 3 -14 14v302c0 141 -19 133 -19 156c0 5 4 9 11 11l76 25c6 2 11 3 15 3c13 0 21 -22 32 -69c29 26 74 69 153 69
c55 0 130 -25 130 -146z" />
    <glyph glyph-name="o" unicode="o" horiz-adv-x="519" 
d="M259 83c70 0 82 70 82 164c0 93 -13 164 -82 164s-82 -71 -82 -164s12 -164 82 -164zM476 247c0 -161 -82 -264 -217 -264s-217 103 -217 264s82 264 217 264c134 0 217 -103 217 -264z" />
    <glyph glyph-name="p" unicode="p" horiz-adv-x="537" 
d="M203 373v-271c18 -10 34 -19 73 -19c70 0 88 50 88 168c0 103 -19 160 -81 160c-42 0 -66 -25 -80 -38zM203 9v-183c0 -14 -7 -16 -19 -18l-84 -17c-3 -1 -12 -3 -17 -3s-7 4 -7 21v507c0 141 -19 133 -19 156c0 5 4 9 11 11l76 25c6 2 11 3 15 3c13 0 20 -19 31 -52
c22 21 61 52 128 52c111 0 173 -87 173 -255c0 -175 -54 -273 -184 -273c-58 0 -83 15 -104 26z" />
    <glyph glyph-name="q" unicode="q" horiz-adv-x="519" 
d="M323 102v271c-14 13 -38 33 -80 33c-58 0 -77 -57 -77 -155c0 -118 18 -168 84 -168c39 0 55 9 73 19zM450 314v-488c0 -13 -7 -16 -19 -18l-84 -17c-3 -1 -13 -3 -17 -3c-5 0 -7 4 -7 21v200c-21 -11 -46 -26 -100 -26c-130 0 -184 98 -184 273c0 168 62 255 173 255
c77 0 109 -33 129 -51c1 9 22 51 37 51c5 0 10 -2 15 -3l74 -25c5 -2 12 -6 12 -12c0 -12 -29 -35 -29 -157z" />
    <glyph glyph-name="r" unicode="r" horiz-adv-x="352" 
d="M197 348v-334c0 -11 -2 -14 -14 -14h-99c-12 0 -14 3 -14 14v302c0 110 -26 128 -26 151c0 4 4 7 9 9l76 31c4 1 9 4 13 4c12 0 32 -45 37 -79c19 23 56 79 124 79c29 0 58 -10 58 -23c0 -4 -1 -8 -2 -10l-31 -84c-1 -3 -4 -9 -8 -9c-6 0 -24 11 -47 11
c-31 0 -63 -34 -76 -48z" />
    <glyph glyph-name="s" unicode="s" horiz-adv-x="426" 
d="M377 449l-23 -55c-2 -5 -7 -9 -8 -9c-3 0 -52 26 -116 26c-38 0 -66 -14 -66 -48c0 -54 90 -50 161 -97c39 -26 67 -64 67 -122c0 -92 -65 -161 -171 -161c-74 0 -188 38 -188 65c0 3 4 9 5 13l22 57c2 5 4 9 8 9s81 -44 143 -44c33 0 61 14 61 50c0 58 -98 58 -164 102
c-30 20 -59 55 -59 113c0 91 69 163 177 163c61 0 156 -26 156 -49c0 -3 -3 -9 -5 -13z" />
    <glyph glyph-name="t" unicode="t" horiz-adv-x="370" 
d="M346 111l20 -82c1 -5 2 -5 2 -8c0 -19 -73 -38 -141 -38c-129 0 -129 101 -129 193v225h-71c-12 0 -14 3 -14 14v65c0 11 2 14 14 14h71v126c0 13 2 16 16 18l88 12c3 0 7 1 13 1c9 0 10 -5 10 -17v-140h114c9 0 17 0 17 -11c0 -2 0 -4 -1 -8l-13 -59
c-3 -14 -6 -15 -18 -15h-99v-242c0 -32 0 -61 34 -61c40 0 65 19 79 19c4 0 7 -2 8 -6z" />
    <glyph glyph-name="u" unicode="u" horiz-adv-x="537" 
d="M473 11l-76 -25c-6 -2 -11 -3 -15 -3c-13 0 -21 19 -32 59c-27 -24 -74 -59 -153 -59c-55 0 -130 25 -130 146v344c0 14 7 15 19 18l84 17c3 0 13 3 16 3c6 0 8 -4 8 -21v-318c0 -38 5 -84 56 -84c42 0 75 22 88 31v354c0 14 7 15 19 18l84 17c3 0 13 3 17 3
c5 0 7 -4 7 -21v-312c0 -141 19 -133 19 -156c0 -5 -4 -9 -11 -11z" />
    <glyph glyph-name="v" unicode="v" horiz-adv-x="463" 
d="M452 465l-163 -461c-4 -11 -5 -13 -19 -13h-82c-14 0 -15 2 -19 13l-159 461c-1 2 -4 10 -5 17c0 8 7 9 22 11l83 9c3 0 14 1 16 1c8 0 11 -10 14 -20l61 -225c11 -40 26 -108 32 -145h2c6 36 22 106 34 145l68 225c3 11 6 20 14 20c2 0 13 -1 16 -1l68 -9
c15 -2 22 -3 22 -11c-1 -7 -4 -15 -5 -17z" />
    <glyph glyph-name="w" unicode="w" horiz-adv-x="667" 
d="M144 483l43 -216c10 -49 17 -114 22 -169h2c1 38 11 119 19 156l46 224c3 15 4 16 19 16h89c15 0 16 -1 19 -16l44 -224c8 -43 18 -113 19 -156h2c5 56 10 114 22 169l48 216c2 10 6 20 14 20c4 0 13 -1 16 -1l68 -9c15 -2 22 -3 22 -10c0 -4 -3 -11 -5 -19l-139 -459
c-4 -13 -6 -14 -19 -14h-78c-13 0 -16 6 -18 16l-49 254c-6 32 -11 84 -13 112h-2c-2 -28 -10 -80 -18 -112l-60 -254c-2 -10 -5 -16 -18 -16h-78c-13 0 -15 1 -19 14l-120 459c-2 7 -4 14 -5 19c0 7 7 8 22 10l75 9c3 0 13 1 17 1c7 0 11 -10 13 -20z" />
    <glyph glyph-name="x" unicode="x" horiz-adv-x="463" 
d="M305 249l143 -197c3 -5 8 -11 8 -14c0 -7 -2 -8 -13 -13l-76 -29c-5 -2 -13 -5 -17 -5s-8 8 -15 18l-65 92c-12 17 -29 46 -39 61c-10 -15 -27 -44 -39 -61l-65 -92c-7 -10 -11 -18 -15 -18s-12 3 -17 5l-76 29c-11 4 -13 6 -13 13c0 3 5 9 8 14l146 198l-131 192
c-3 5 -8 11 -8 14c0 7 2 8 13 13l76 29c5 1 13 5 17 5c5 0 8 -8 15 -18l52 -87c14 -23 22 -39 35 -61c13 23 25 37 41 61l58 87c7 10 10 18 15 18c4 0 12 -4 17 -5l76 -29c11 -5 13 -6 13 -13c0 -3 -5 -9 -8 -14z" />
    <glyph glyph-name="y" unicode="y" horiz-adv-x="481" 
d="M283 241l53 241c3 11 8 21 17 21c4 0 15 -1 18 -1l70 -9c15 -2 22 -3 22 -10c0 -4 -3 -10 -5 -18l-98 -361c-18 -65 -45 -167 -67 -222c-29 -73 -91 -94 -147 -94c-55 0 -136 27 -136 46c0 4 2 8 4 12l30 65c2 5 6 7 9 7c10 0 41 -25 85 -25c52 0 67 31 80 74l10 33h-42
c-13 0 -15 4 -18 13l-153 452c-1 2 -4 10 -5 17c0 8 7 9 22 11l83 9c3 0 14 1 16 1c8 0 11 -10 14 -20l65 -242c12 -45 32 -139 38 -173h2c5 39 29 155 33 173z" />
    <glyph glyph-name="z" unicode="z" horiz-adv-x="426" 
d="M410 84l-29 -71c-3 -8 -10 -13 -14 -13h-333c-6 0 -10 4 -10 10v75l230 304h-202c-5 0 -7 6 -7 13v78c0 10 3 14 14 14h317c8 0 17 -4 17 -10v-78l-226 -301h228c19 0 19 -7 19 -10c0 -5 -3 -9 -4 -11z" />
    <glyph glyph-name="braceleft" unicode="{" horiz-adv-x="444" 
d="M388 -117v-64c0 -15 -2 -21 -18 -21c-124 0 -200 48 -200 184v149c0 50 -19 72 -68 72h-18c-17 0 -20 3 -20 21v66c0 18 3 21 20 21h18c49 0 68 22 68 72v150c0 136 76 184 200 184c16 0 18 -6 18 -21v-64c0 -16 -3 -20 -20 -20c-31 0 -71 -1 -71 -70v-164
c0 -75 -27 -98 -73 -120c46 -23 73 -46 73 -122v-163c0 -69 40 -70 71 -70c17 0 20 -4 20 -20z" />
    <glyph glyph-name="bar" unicode="|" horiz-adv-x="400" 
d="M250 733v-966c0 -14 -3 -17 -17 -17h-66c-14 0 -17 3 -17 17v966c0 14 3 17 17 17h66c14 0 17 -3 17 -17z" />
    <glyph glyph-name="braceright" unicode="}" horiz-adv-x="444" 
d="M274 131v-149c0 -136 -76 -184 -200 -184c-16 0 -18 6 -18 21v64c0 16 3 20 20 20c31 0 71 1 71 70v163c0 76 27 99 73 122c-46 22 -73 45 -73 120v164c0 69 -40 70 -71 70c-17 0 -20 4 -20 20v64c0 15 2 21 18 21c124 0 200 -48 200 -184v-150c0 -50 19 -72 68 -72h18
c17 0 20 -3 20 -21v-66c0 -18 -3 -21 -20 -21h-18c-49 0 -68 -22 -68 -72z" />
    <glyph glyph-name="asciitilde" unicode="~" 
d="M470 342h60c0 -59 -15 -187 -126 -187c-42 0 -83 19 -120 41l-38 22c-36 22 -77 46 -108 46c-48 0 -51 -57 -55 -94h-60c0 59 15 187 126 187c42 0 83 -19 120 -41l38 -22c36 -22 77 -46 108 -46c48 0 51 57 55 94z" />
    <glyph glyph-name="exclamdown" unicode="&#xa1;" horiz-adv-x="352" 
d="M225 216l22 -391c1 -17 1 -14 1 -20c0 -13 -12 -13 -20 -13h-107c-8 0 -18 0 -18 13c0 6 0 3 1 20l22 391c2 19 6 20 21 20h57c15 0 19 -1 21 -20zM260 426c0 -45 -38 -84 -84 -84c-48 0 -85 39 -85 84c0 48 37 85 85 85c47 0 84 -38 84 -85z" />
    <glyph glyph-name="cent" unicode="&#xa2;" 
d="M297 176v325c-37 -11 -74 -41 -74 -169c0 -113 34 -145 74 -156zM357 71v-51c0 -17 -3 -20 -21 -20h-18c-18 0 -21 3 -21 20v51c-83 6 -201 58 -201 256c0 205 116 259 201 270v54c0 18 3 21 21 21h18c18 0 21 -4 21 -21v-54c21 0 113 -20 113 -43c0 -4 -2 -8 -3 -9
l-38 -70c-1 -2 -3 -4 -5 -4c-9 0 -43 30 -67 30v-325c41 7 59 22 64 22c3 0 6 -3 7 -5l28 -70c1 -3 3 -6 3 -9c0 -24 -80 -41 -102 -43z" />
    <glyph glyph-name="sterling" unicode="&#xa3;" 
d="M543 85l-17 -68c-3 -13 -8 -17 -23 -17h-435c-18 0 -21 3 -21 21v67c0 17 3 20 21 20h70c5 25 13 48 13 87c0 42 -9 75 -14 101h-80c-17 0 -20 3 -20 21v51c0 17 3 21 20 21h61c-7 30 -13 60 -13 92c0 133 96 204 226 204c94 0 178 -38 178 -61c0 -3 -1 -8 -2 -9l-33 -63
c-3 -6 -8 -10 -13 -10c-16 0 -60 38 -127 38c-63 0 -109 -34 -109 -107c0 -28 7 -57 16 -84h137c17 0 20 -4 20 -21v-51c0 -17 -2 -21 -20 -21h-121c7 -29 14 -57 14 -101c0 -37 -5 -65 -9 -87h263c10 0 20 -1 20 -11c0 -4 -1 -8 -2 -12z" />
    <glyph glyph-name="fraction" unicode="&#x2044;" horiz-adv-x="230" 
d="M276 659l-236 -659c-4 -11 -11 -17 -23 -17h-51c-9 0 -21 0 -21 10c0 4 2 9 4 14l237 662c5 14 15 16 23 16h51c10 0 19 -1 19 -12c0 -5 -1 -8 -3 -14z" />
    <glyph glyph-name="yen" unicode="&#xa5;" horiz-adv-x="537" 
d="M331 246v-225c0 -18 -4 -21 -21 -21h-73c-17 0 -21 3 -21 21v225h-174c-17 0 -20 3 -20 20v12c0 17 3 20 20 20h163l-25 51h-137c-18 0 -21 4 -21 20v12c0 17 4 20 21 20h113l-122 243c-5 7 -7 14 -7 21c0 6 13 9 21 11l85 16c4 0 7 2 15 2c7 0 9 -5 15 -20l55 -140
c17 -43 43 -112 58 -168h2c13 58 35 115 56 168l56 140c8 19 8 20 15 20c8 0 11 -2 15 -2l69 -15c8 -2 21 -5 21 -12s-2 -13 -7 -20l-115 -244h107c17 0 20 -3 20 -20v-12c0 -17 -3 -20 -20 -20h-132l-23 -51h155c17 0 20 -3 20 -20v-12c0 -17 -3 -20 -20 -20h-164z" />
    <glyph glyph-name="florin" unicode="&#x192;" 
d="M327 401l-80 -406c-10 -52 -32 -197 -197 -197c-38 0 -84 4 -84 17c0 2 2 8 3 11l20 70c1 4 5 6 8 6c4 0 19 -4 40 -4c73 0 81 58 92 112l78 391h-61c-10 0 -20 1 -20 12c0 4 0 7 1 11l9 51c2 15 9 19 22 19h69l14 63c12 59 26 160 175 160c51 0 100 -13 100 -27
c0 -4 -2 -8 -2 -10l-22 -65c-1 -2 -3 -10 -9 -10c-5 0 -31 16 -60 16c-58 0 -62 -57 -68 -84l-8 -43h103c10 0 20 -2 20 -12c0 -4 -1 -8 -2 -12l-16 -52c-4 -13 -10 -17 -22 -17h-103z" />
    <glyph glyph-name="section" unicode="&#xa7;" 
d="M444 632l-29 -56c-2 -4 -7 -8 -11 -8c-14 0 -59 41 -116 41c-36 0 -67 -14 -67 -45c0 -43 95 -61 182 -119c43 -29 75 -66 75 -128c0 -86 -64 -127 -99 -145c31 -18 80 -49 80 -125c0 -93 -84 -168 -188 -168c-90 0 -192 48 -192 71c0 3 1 8 3 11l32 61c1 2 5 8 9 8
c13 0 70 -55 151 -55c37 0 58 22 58 53c0 43 -52 63 -109 88c-69 30 -146 71 -146 167c0 97 64 128 104 146c-25 15 -75 44 -75 117c0 101 89 156 183 156c83 0 159 -40 159 -59c0 -4 -2 -8 -4 -11zM289 219c26 15 69 39 69 83c0 42 -54 64 -85 81c-26 -15 -76 -41 -76 -84
s62 -66 92 -80z" />
    <glyph glyph-name="currency" unicode="&#xa4;" 
d="M72 108l-30 30l67 67c-33 36 -47 88 -47 136c0 49 17 100 48 138l-70 70l32 31l69 -68c39 28 88 46 137 46c48 0 97 -18 136 -46l69 68l32 -31l-70 -70c35 -36 48 -89 48 -138c0 -48 -15 -100 -47 -136l67 -67l-30 -30l-66 66c-44 -33 -90 -47 -139 -47
c-50 0 -103 18 -140 47zM278 517c-97 0 -175 -80 -175 -176s79 -173 175 -173c95 0 174 78 174 173c0 96 -78 176 -174 176z" />
    <glyph glyph-name="quotesingle" unicode="'" horiz-adv-x="204" 
d="M164 694l-21 -229c-1 -17 -4 -20 -21 -20h-41c-17 0 -20 3 -21 20l-21 229c-1 3 -1 7 -1 10c0 13 10 13 20 13h87c10 0 20 0 20 -13c0 -3 0 -7 -1 -10z" />
    <glyph glyph-name="quotedblleft" unicode="&#x201c;" horiz-adv-x="500" 
d="M450 675l-62 -204c-4 -13 -9 -17 -22 -17h-97c-10 0 -20 1 -20 11c0 5 3 12 5 15l119 223c4 7 7 14 14 14c5 0 8 -2 12 -3l38 -13c8 -3 16 -6 16 -13c0 -5 -1 -7 -3 -13zM248 675l-62 -204c-4 -13 -9 -17 -22 -17h-97c-10 0 -20 1 -20 11c0 5 3 12 5 15l119 223
c4 7 7 14 14 14c5 0 8 -2 12 -3l38 -13c8 -3 16 -6 16 -13c0 -5 -1 -7 -3 -13z" />
    <glyph glyph-name="guillemotleft" unicode="&#xab;" horiz-adv-x="593" 
d="M289 37l-50 -31c-4 -2 -9 -6 -14 -6s-9 5 -14 12l-169 224c-3 4 -6 9 -6 14s3 10 6 14l169 219c6 7 9 11 14 11s10 -4 14 -6l50 -31c8 -5 13 -9 13 -15c0 -5 -4 -10 -7 -14l-124 -184l124 -178c3 -5 6 -9 6 -14c0 -7 -5 -11 -12 -15zM524 37l-50 -31c-4 -2 -9 -6 -14 -6
s-9 5 -14 12l-169 224c-3 4 -6 9 -6 14s3 10 6 14l169 219c6 7 9 11 14 11s10 -4 14 -6l50 -31c8 -5 13 -9 13 -15c0 -5 -4 -10 -7 -14l-124 -184l124 -178c3 -5 6 -9 6 -14c0 -7 -5 -11 -12 -15z" />
    <glyph glyph-name="guilsinglleft" unicode="&#x2039;" horiz-adv-x="370" 
d="M289 37l-50 -31c-4 -2 -9 -6 -14 -6s-9 5 -14 12l-169 224c-3 4 -6 9 -6 14s3 10 6 14l169 219c6 7 9 11 14 11s10 -4 14 -6l50 -31c8 -5 13 -9 13 -15c0 -5 -4 -10 -7 -14l-124 -184l124 -178c3 -5 6 -9 6 -14c0 -7 -5 -11 -12 -15z" />
    <glyph glyph-name="guilsinglright" unicode="&#x203a;" horiz-adv-x="370" 
d="M328 236l-169 -224c-5 -7 -9 -12 -14 -12s-10 4 -14 6l-50 31c-7 4 -12 8 -12 15c0 5 3 9 6 14l124 178l-124 184c-3 4 -7 9 -7 14c0 6 5 10 13 15l50 31c4 2 9 6 14 6s8 -4 14 -11l169 -219c3 -4 6 -9 6 -14s-3 -10 -6 -14z" />
    <glyph glyph-name="endash" unicode="&#x2013;" 
d="M515 292v-73c0 -18 -3 -21 -21 -21h-431c-18 0 -21 3 -21 21v73c0 18 3 21 21 21h431c18 0 21 -3 21 -21z" />
    <glyph glyph-name="dagger" unicode="&#x2020;" 
d="M333 380v-571c0 -17 -3 -21 -21 -21h-68c-19 0 -21 3 -21 21v571h-117c-19 0 -21 4 -21 21v55c0 17 3 20 22 20h116v189c0 17 3 20 20 20h70c17 0 20 -3 20 -20v-189h117c17 0 21 -3 21 -20v-55c0 -17 -4 -21 -21 -21h-117z" />
    <glyph glyph-name="daggerdbl" unicode="&#x2021;" 
d="M333 0v-191c0 -17 -3 -21 -21 -21h-68c-19 0 -21 3 -21 21v191h-117c-19 0 -21 4 -21 21v55c0 17 3 20 22 20h116v284h-117c-19 0 -21 4 -21 21v55c0 17 3 20 22 20h116v189c0 17 3 20 20 20h70c17 0 20 -3 20 -20v-189h117c17 0 21 -3 21 -20v-55c0 -17 -4 -21 -21 -21
h-117v-284h117c17 0 21 -3 21 -20v-55c0 -17 -4 -21 -21 -21h-117z" />
    <glyph glyph-name="periodcentered" unicode="&#xb7;" 
d="M354 256c0 -42 -35 -76 -76 -76c-42 0 -77 34 -77 76s34 77 77 77c42 0 76 -35 76 -77z" />
    <glyph glyph-name="paragraph" unicode="&#xb6;" horiz-adv-x="667" 
d="M574 595v-761c0 -17 -3 -20 -20 -20h-60c-17 0 -20 3 -20 20v761h-68v-761c0 -17 -3 -20 -20 -20h-60c-17 0 -20 3 -20 20v327c-20 -5 -41 -8 -61 -8c-141 0 -218 100 -218 264c0 251 140 268 272 268h332c18 0 21 -3 21 -20v-50c0 -17 -4 -20 -21 -20h-57zM306 251v344
c-80 0 -152 -8 -152 -166c0 -125 28 -183 114 -183c13 0 25 2 38 5z" />
    <glyph glyph-name="bullet" unicode="&#x2022;" horiz-adv-x="500" 
d="M250 180c-100 0 -181 81 -181 180c0 100 81 182 181 182c99 0 181 -82 181 -182c0 -99 -82 -180 -181 -180z" />
    <glyph glyph-name="quotesinglbase" unicode="&#x201a;" horiz-adv-x="222" 
d="M197 99l-119 -223c-4 -7 -7 -14 -14 -14c-5 0 -8 2 -12 3l-38 13c-8 3 -16 6 -16 13c0 5 1 7 3 13l62 204c4 13 9 17 22 17h97c10 0 20 -1 20 -11c0 -5 -3 -12 -5 -15z" />
    <glyph glyph-name="quotedblbase" unicode="&#x201e;" horiz-adv-x="500" 
d="M250 99l-119 -223c-4 -7 -7 -14 -14 -14c-5 0 -8 2 -12 3l-38 13c-8 3 -16 6 -16 13c0 5 1 7 3 13l62 204c4 13 9 17 22 17h97c10 0 20 -1 20 -11c0 -5 -3 -12 -5 -15zM452 99l-119 -223c-4 -7 -7 -14 -14 -14c-5 0 -8 2 -12 3l-38 13c-8 3 -16 6 -16 13c0 5 1 7 3 13
l62 204c4 13 9 17 22 17h97c10 0 20 -1 20 -11c0 -5 -3 -12 -5 -15z" />
    <glyph glyph-name="quotedblright" unicode="&#x201d;" horiz-adv-x="500" 
d="M246 691l-119 -223c-4 -7 -7 -14 -14 -14c-5 0 -8 2 -12 3l-38 13c-8 3 -16 6 -16 13c0 5 1 7 3 13l62 204c4 13 9 17 22 17h97c10 0 20 -1 20 -11c0 -5 -3 -12 -5 -15zM448 691l-119 -223c-4 -7 -7 -14 -14 -14c-5 0 -8 2 -12 3l-38 13c-8 3 -16 6 -16 13c0 5 1 7 3 13
l62 204c4 13 9 17 22 17h97c10 0 20 -1 20 -11c0 -5 -3 -12 -5 -15z" />
    <glyph glyph-name="guillemotright" unicode="&#xbb;" horiz-adv-x="593" 
d="M551 236l-169 -224c-5 -7 -9 -12 -14 -12s-10 4 -14 6l-50 31c-7 4 -12 8 -12 15c0 5 3 9 6 14l124 178l-124 184c-3 4 -7 9 -7 14c0 6 5 10 13 15l50 31c4 2 9 6 14 6s8 -4 14 -11l169 -219c3 -4 6 -9 6 -14s-3 -10 -6 -14zM316 236l-169 -224c-5 -7 -9 -12 -14 -12
s-10 4 -14 6l-50 31c-7 4 -12 8 -12 15c0 5 3 9 6 14l124 178l-124 184c-3 4 -7 9 -7 14c0 6 5 10 13 15l50 31c4 2 9 6 14 6s8 -4 14 -11l169 -219c3 -4 6 -9 6 -14s-3 -10 -6 -14z" />
    <glyph glyph-name="ellipsis" unicode="&#x2026;" horiz-adv-x="1000" 
d="M257 90c0 -50 -41 -90 -90 -90c-50 0 -90 40 -90 90c0 49 40 90 90 90c49 0 90 -40 90 -90zM923 90c0 -50 -41 -90 -90 -90c-50 0 -90 40 -90 90c0 49 40 90 90 90c49 0 90 -40 90 -90zM590 90c0 -50 -41 -90 -90 -90c-50 0 -90 40 -90 90c0 49 40 90 90 90
c49 0 90 -40 90 -90z" />
    <glyph glyph-name="perthousand" unicode="&#x2030;" horiz-adv-x="1185" 
d="M632 58c43 0 49 45 49 101c0 57 -7 101 -49 101s-49 -44 -49 -101c0 -56 6 -101 49 -101zM781 159c0 -105 -54 -176 -149 -176s-149 70 -149 176c0 105 54 176 149 176s149 -71 149 -176zM586 659l-236 -659c-4 -11 -11 -17 -23 -17h-51c-9 0 -21 0 -21 10c0 4 2 9 4 14
l237 662c5 14 15 16 23 16h51c10 0 19 -1 19 -12c0 -5 -1 -8 -3 -14zM348 492c0 -105 -54 -176 -149 -176s-149 70 -149 176c0 105 54 176 149 176s149 -71 149 -176zM199 391c43 0 49 45 49 101c0 57 -7 101 -49 101s-49 -44 -49 -101c0 -56 6 -101 49 -101zM1137 159
c0 -105 -54 -176 -149 -176s-149 70 -149 176c0 105 54 176 149 176s149 -71 149 -176zM988 58c43 0 49 45 49 101c0 57 -7 101 -49 101s-49 -44 -49 -101c0 -56 6 -101 49 -101z" />
    <glyph glyph-name="questiondown" unicode="&#xbf;" horiz-adv-x="500" 
d="M413 -70l26 -68c2 -4 2 -7 2 -11c0 -26 -119 -59 -186 -59c-121 0 -196 78 -196 187c0 129 103 163 162 183v68c0 18 3 21 21 21h73c18 0 21 -3 21 -21v-125c0 -23 -35 -28 -71 -40c-35 -12 -71 -32 -71 -87c0 -46 29 -71 83 -71c62 0 115 33 125 33c5 0 10 -5 11 -10z
M360 427c0 -48 -37 -85 -85 -85c-47 0 -84 38 -84 85c0 45 38 84 84 84c48 0 85 -39 85 -84z" />
    <glyph glyph-name="grave" unicode="`" horiz-adv-x="335" 
d="M255 610l-16 -32c-4 -8 -7 -14 -13 -14c-5 0 -9 2 -14 4l-176 70c-8 3 -16 6 -16 13c0 5 3 10 5 14l31 61c4 7 7 14 14 14c5 0 10 -4 14 -6l163 -96c8 -5 13 -8 13 -14c0 -5 -3 -10 -5 -14z" />
    <glyph glyph-name="acute" unicode="&#xb4;" horiz-adv-x="335" 
d="M299 638l-176 -70c-5 -2 -9 -4 -14 -4c-6 0 -9 6 -13 14l-16 32c-2 4 -5 9 -5 14c0 6 5 9 13 14l163 96c4 2 9 6 14 6c7 0 10 -7 14 -14l31 -61c2 -4 5 -9 5 -14c0 -7 -8 -10 -16 -13z" />
    <glyph glyph-name="circumflex" unicode="&#x2c6;" horiz-adv-x="335" 
d="M301 609l-19 -32c-7 -12 -10 -13 -14 -13c-5 0 -9 3 -14 6l-86 49l-86 -49c-5 -3 -9 -6 -14 -6c-4 0 -7 1 -14 13l-19 32c-2 3 -6 9 -6 14c0 6 7 10 12 14l113 89c4 3 9 8 14 8s10 -5 14 -8l113 -89c5 -4 12 -8 12 -14c0 -5 -4 -11 -6 -14z" />
    <glyph glyph-name="tilde" unicode="&#x2dc;" horiz-adv-x="335" 
d="M268 715l47 -24c3 -2 7 -5 7 -9c0 -5 -33 -94 -105 -94c-48 0 -68 35 -96 35c-30 0 -35 -36 -45 -36c-4 0 -6 1 -9 3l-47 24c-4 2 -7 5 -7 8s29 94 103 94c50 0 75 -35 102 -35s31 36 43 36c2 0 5 -1 7 -2z" />
    <glyph glyph-name="macron" unicode="&#xaf;" horiz-adv-x="335" 
d="M290 673v-42c0 -17 -2 -20 -20 -20h-205c-16 0 -20 3 -20 20v42c0 18 3 20 20 20h205c18 0 20 -3 20 -20z" />
    <glyph glyph-name="breve" unicode="&#x2d8;" horiz-adv-x="335" 
d="M238 722l59 -8c6 -1 11 -7 11 -13c0 -38 -31 -121 -140 -121c-110 0 -141 83 -141 121c0 6 5 12 11 13l59 8c3 0 10 1 13 1c7 0 7 -15 13 -31c6 -15 17 -30 45 -30s39 15 44 30c5 16 6 31 13 31c3 0 10 -1 13 -1z" />
    <glyph glyph-name="dotaccent" unicode="&#x2d9;" horiz-adv-x="335" 
d="M246 651c0 -42 -35 -77 -78 -77c-42 0 -77 34 -77 77c0 44 35 78 77 78c43 0 78 -35 78 -78z" />
    <glyph glyph-name="dieresis" unicode="&#xa8;" horiz-adv-x="335" 
d="M149 652c0 -38 -31 -69 -69 -69s-69 31 -69 69s30 69 69 69c38 0 69 -31 69 -69zM326 652c0 -38 -31 -69 -69 -69s-69 31 -69 69s30 69 69 69s69 -32 69 -69z" />
    <glyph glyph-name="ring" unicode="&#x2da;" horiz-adv-x="335" 
d="M273 668c0 -58 -48 -104 -105 -104s-104 46 -104 104c0 59 47 105 104 105s105 -46 105 -105zM168 626c24 0 43 18 43 42s-19 43 -43 43c-23 0 -42 -18 -42 -43c0 -24 20 -42 42 -42z" />
    <glyph glyph-name="cedilla" unicode="&#xb8;" horiz-adv-x="335" 
d="M192 0l-4 -52c26 0 71 -17 71 -72c0 -52 -40 -88 -109 -88c-34 0 -73 5 -73 18c0 3 1 8 2 12l7 34c1 5 1 8 6 8s19 -7 42 -7c19 0 32 10 32 23c0 20 -27 23 -43 23c-15 0 -19 3 -19 11c0 7 1 14 2 21l5 69h81z" />
    <glyph glyph-name="hungarumlaut" unicode="&#x2dd;" horiz-adv-x="335" 
d="M220 677l-115 -104c-4 -4 -9 -9 -14 -9c-6 0 -11 5 -15 9l-15 13c-4 3 -10 9 -10 15c0 5 4 8 8 14l94 122c4 5 8 11 15 11c5 0 10 -5 14 -8l38 -34c4 -4 10 -8 10 -14s-6 -12 -10 -15zM376 677l-115 -104c-4 -4 -9 -9 -14 -9c-6 0 -11 5 -15 9l-15 13c-4 3 -10 9 -10 15
c0 5 4 8 8 14l94 122c4 5 8 11 15 11c5 0 10 -5 14 -8l38 -34c4 -4 10 -8 10 -14s-6 -12 -10 -15z" />
    <glyph glyph-name="ogonek" unicode="&#x2db;" horiz-adv-x="335" 
d="M245 -108l14 -45c1 -4 3 -7 3 -11c0 -12 -49 -32 -90 -32c-55 0 -99 30 -99 83c0 70 64 114 89 129h78c-20 -18 -83 -75 -83 -110c0 -18 9 -27 28 -27c30 0 46 19 53 19c3 0 6 -3 7 -6z" />
    <glyph glyph-name="caron" unicode="&#x2c7;" horiz-adv-x="335" 
d="M295 661l-113 -89c-4 -3 -9 -8 -14 -8s-10 5 -14 8l-113 89c-5 4 -12 8 -12 14c0 5 4 11 6 14l19 32c7 12 10 13 14 13c5 0 9 -3 14 -6l86 -49l86 49c5 3 9 6 14 6c4 0 7 -1 14 -13l19 -32c2 -3 6 -9 6 -14c0 -6 -7 -10 -12 -14z" />
    <glyph glyph-name="emdash" unicode="&#x2014;" horiz-adv-x="1000" 
d="M958 292v-73c0 -18 -3 -21 -21 -21h-874c-18 0 -21 3 -21 21v73c0 18 3 21 21 21h874c18 0 21 -3 21 -21z" />
    <glyph glyph-name="AE" unicode="&#xc6;" horiz-adv-x="778" 
d="M748 87v-66c0 -18 -3 -21 -20 -21h-324c-17 0 -21 3 -21 21v162h-162l-63 -162c-4 -18 -6 -21 -21 -21h-101c-13 0 -19 2 -20 12c0 2 3 10 4 14l276 644c4 13 5 15 22 15h409c20 0 25 -2 25 -11c0 -5 -1 -7 -3 -14l-19 -67c-4 -15 -15 -16 -23 -16h-194v-165h170
c18 0 21 -3 21 -21v-66c0 -18 -4 -21 -21 -21h-170v-196h214c18 0 21 -3 21 -21zM383 273v337h-2c-5 -16 -28 -86 -52 -136l-81 -201h135z" />
    <glyph glyph-name="ordfeminine" unicode="&#xaa;" horiz-adv-x="444" 
d="M346 356l-54 -18c-6 -2 -12 -5 -16 -5c-5 0 -15 24 -18 39c-13 -13 -34 -39 -83 -39c-62 0 -107 38 -107 102c0 117 138 116 181 117v17c0 32 -6 46 -47 46c-43 0 -75 -15 -88 -15c-3 0 -5 2 -6 6l-14 41c-1 3 -2 4 -2 7c0 14 63 31 121 31c107 0 126 -51 126 -107v-117
c0 -87 17 -79 17 -96c0 -4 -5 -8 -10 -9zM249 417v80c-15 0 -91 4 -91 -56c0 -27 18 -43 43 -43c22 0 41 13 48 19z" />
    <glyph glyph-name="Lslash" unicode="&#x141;" horiz-adv-x="500" 
d="M489 94l-19 -76c-4 -16 -7 -18 -22 -18h-330c-17 0 -21 3 -21 21v239l-60 -35c-3 -2 -6 -3 -9 -3c-5 0 -6 5 -6 11v63c0 9 2 11 9 16l66 38v314c0 18 4 21 21 21h93c17 0 21 -3 21 -21v-229l138 86c3 2 7 5 11 5c6 0 6 -6 6 -11v-71c0 -7 -5 -11 -9 -14l-146 -88v-222
h241c14 0 18 -5 18 -13c0 -3 -1 -9 -2 -13z" />
    <glyph glyph-name="Oslash" unicode="&#xd8;" horiz-adv-x="593" 
d="M518 697l-42 -83c42 -53 69 -140 69 -272c0 -242 -94 -359 -249 -359c-54 0 -99 12 -133 38l-42 -78c-5 -9 -8 -13 -14 -13c-5 0 -9 2 -14 4l-31 16c-8 5 -14 8 -14 14c0 5 2 9 5 14l54 102c-38 57 -60 138 -60 262c0 243 95 360 249 360c51 0 88 -12 122 -31l32 60
c4 7 7 14 13 14c5 0 10 -3 14 -5l32 -16c8 -4 14 -8 14 -13s-3 -11 -5 -14zM195 211l165 349c-16 23 -31 37 -64 37c-75 0 -107 -99 -107 -255c0 -50 0 -108 4 -131h2zM390 473l-163 -346c16 -24 36 -39 69 -39c75 0 107 98 107 254c0 56 -5 100 -11 131h-2z" />
    <glyph glyph-name="OE" unicode="&#x152;" horiz-adv-x="778" 
d="M744 87v-66c0 -18 -3 -21 -20 -21h-324c-8 -3 -18 -7 -34 -11c-16 -3 -37 -6 -69 -6c-155 0 -249 117 -249 359c0 243 95 360 249 360c68 0 75 -11 103 -17h323c20 0 25 -2 25 -11c0 -5 -1 -7 -3 -14l-19 -67c-4 -15 -15 -16 -23 -16h-194v-165h170c18 0 21 -3 21 -21
v-66c0 -18 -4 -21 -21 -21h-170v-196h214c18 0 21 -3 21 -21zM379 114v456c-16 16 -41 27 -82 27c-75 0 -107 -99 -107 -255s32 -254 107 -254c45 0 69 18 82 26z" />
    <glyph glyph-name="ordmasculine" unicode="&#xba;" horiz-adv-x="444" 
d="M371 509c0 -105 -54 -176 -149 -176s-149 70 -149 176c0 105 54 176 149 176s149 -71 149 -176zM222 408c43 0 49 45 49 101c0 57 -7 101 -49 101s-49 -44 -49 -101c0 -56 6 -101 49 -101z" />
    <glyph glyph-name="ae" unicode="&#xe6;" horiz-adv-x="741" 
d="M656 113l25 -60c2 -3 3 -7 3 -11c0 -26 -100 -59 -179 -59c-51 0 -115 14 -157 68c-28 -23 -85 -68 -163 -68c-92 0 -150 60 -150 154c0 169 178 169 257 169v31c0 45 -8 74 -67 74c-56 0 -111 -30 -124 -30c-5 0 -9 6 -10 10l-20 61c-2 4 -3 8 -3 12c0 23 99 47 176 47
c73 0 117 -48 124 -65c18 23 64 65 132 65c170 0 200 -152 200 -273c0 -19 -4 -25 -23 -25h-265c0 -56 16 -125 106 -125c72 0 113 33 127 33c5 0 9 -4 11 -8zM412 306h153c0 41 -3 112 -72 112c-74 0 -78 -84 -81 -112zM292 114v110c-25 0 -137 8 -137 -80
c0 -39 28 -68 66 -68c36 0 59 26 71 38z" />
    <glyph glyph-name="dotlessi" unicode="&#x131;" horiz-adv-x="315" 
d="M234 480v-466c0 -11 -2 -14 -14 -14h-99c-12 0 -14 3 -14 14v387h-77c-12 0 -14 3 -14 14v65c0 11 2 14 14 14h190c12 0 14 -3 14 -14z" />
    <glyph glyph-name="lslash" unicode="&#x142;" horiz-adv-x="370" 
d="M315 101l20 -82c1 -5 2 -5 2 -8c0 -14 -53 -28 -101 -28c-123 0 -123 101 -123 193v57l-82 -60c-3 -2 -10 -5 -14 -5s-7 1 -7 11v69c0 4 3 8 8 11l95 67v360c0 15 7 15 19 18l84 17c3 0 12 3 14 3c8 0 10 -4 10 -21v-287l100 71c1 1 5 4 8 4c5 0 7 -6 7 -11v-69
c0 -5 -4 -9 -8 -12l-107 -76v-165c0 -32 0 -60 28 -60c20 0 33 9 39 9c4 0 7 -2 8 -6z" />
    <glyph glyph-name="oslash" unicode="&#xf8;" horiz-adv-x="500" 
d="M431 503l-30 -55c42 -42 66 -109 66 -201c0 -161 -82 -264 -217 -264c-40 0 -75 10 -100 23l-28 -49c-3 -5 -6 -11 -11 -11c-4 0 -8 2 -12 4l-25 14c-7 4 -11 7 -11 12c0 4 2 9 4 12l31 56c-42 44 -65 108 -65 203c0 161 82 264 217 264c41 0 76 -6 100 -23l26 45
c3 5 6 11 11 11c4 0 8 -2 12 -4l25 -14c7 -4 12 -7 12 -12c0 -4 -3 -8 -5 -11zM335 351l-132 -253c11 -9 26 -15 47 -15c84 0 97 70 97 164c0 39 -4 80 -12 104zM164 139l133 255c-12 10 -23 17 -47 17c-82 0 -97 -71 -97 -164c0 -41 7 -93 11 -108z" />
    <glyph glyph-name="oe" unicode="&#x153;" horiz-adv-x="778" 
d="M453 306h151c0 41 -3 112 -72 112c-72 0 -76 -84 -79 -112zM258 83c63 0 75 70 75 164c0 93 -13 164 -75 164c-69 0 -82 -71 -82 -164s12 -164 82 -164zM695 113l25 -60c2 -3 3 -7 3 -11c0 -26 -100 -59 -179 -59c-69 0 -121 23 -147 65c-26 -35 -55 -65 -139 -65
c-135 0 -217 103 -217 264s82 264 217 264c90 0 122 -35 143 -62c18 20 56 62 138 62c170 0 200 -152 200 -273c0 -19 -4 -25 -23 -25h-263c0 -56 16 -125 104 -125c72 0 113 33 127 33c5 0 9 -4 11 -8z" />
    <glyph glyph-name="germandbls" unicode="&#xdf;" horiz-adv-x="593" 
d="M67 14v480c0 127 48 230 224 230c102 0 198 -42 198 -146c0 -100 -101 -126 -101 -176c0 -42 67 -70 124 -127c30 -30 54 -68 54 -128c0 -114 -77 -164 -175 -164c-49 0 -133 15 -133 37c0 3 1 5 2 10l16 65c1 4 5 7 9 7c12 0 53 -26 106 -26c37 0 60 21 60 57
c0 43 -37 71 -78 101c-48 36 -100 73 -100 142c0 48 24 76 48 102s48 48 48 83c0 41 -29 63 -79 63c-90 0 -96 -56 -96 -119v-491c0 -11 -2 -14 -14 -14h-99c-12 0 -14 3 -14 14z" />
    <glyph glyph-name="onesuperior" unicode="&#xb9;" horiz-adv-x="370" 
d="M306 315v-30c0 -15 -4 -18 -19 -18h-188c-14 0 -19 3 -19 18v30c0 14 4 17 19 17h56v231l-52 -26c-4 -2 -8 -4 -12 -4c-6 0 -10 6 -13 11l-17 26c-2 3 -5 7 -5 11c0 6 6 9 11 13l115 74h45c15 0 18 -4 18 -17v-319h42c15 0 19 -3 19 -17z" />
    <glyph glyph-name="logicalnot" unicode="&#xac;" 
d="M505 369v-225c0 -14 -3 -17 -17 -17h-66c-14 0 -17 3 -17 17v142h-338c-14 0 -17 3 -17 17v66c0 14 4 17 17 17h421c14 0 17 -3 17 -17z" />
    <glyph glyph-name="mu" unicode="&#xb5;" horiz-adv-x="537" 
d="M194 -7v-167c0 -14 -7 -16 -19 -18l-84 -17c-3 -1 -13 -3 -16 -3c-6 0 -8 4 -8 21v664c0 14 7 15 19 18l84 17c3 0 13 3 16 3c6 0 8 -4 8 -21v-318c0 -38 5 -84 56 -84c42 0 75 22 88 31v354c0 14 7 15 19 18l84 17c3 0 13 3 16 3c6 0 8 -4 8 -21v-312
c0 -141 19 -133 19 -156c0 -5 -4 -9 -11 -11l-76 -25c-6 -2 -11 -3 -15 -3c-13 0 -21 19 -32 59c-23 -21 -71 -59 -114 -59c-18 0 -31 5 -42 10z" />
    <glyph glyph-name="trademark" unicode="&#x2122;" horiz-adv-x="704" 
d="M191 643v-248h-43v248h-73v42h190v-42h-74zM577 685v-290h-43v262h-2l-68 -262h-53l-68 262h-2v-262h-43v290h78l60 -228h2l59 228h80z" />
    <glyph glyph-name="Eth" unicode="&#xd0;" horiz-adv-x="593" 
d="M107 685h155c191 0 291 -62 291 -339c0 -287 -116 -346 -294 -346h-153c-17 0 -21 4 -21 21v290h-51c-18 0 -21 3 -21 21v48c0 17 3 21 21 21h51v263c0 18 4 21 22 21zM220 108h36c113 0 155 49 155 240c0 179 -43 229 -155 229h-36v-176h100c19 0 21 -3 21 -21v-48
c0 -19 -3 -21 -21 -21h-100v-203z" />
    <glyph glyph-name="onehalf" unicode="&#xbd;" horiz-adv-x="870" 
d="M576 659l-236 -659c-4 -11 -11 -17 -23 -17h-51c-9 0 -21 0 -21 10c0 4 2 9 4 14l237 662c5 14 15 16 23 16h51c10 0 19 -1 19 -12c0 -5 -1 -8 -3 -14zM291 315v-30c0 -15 -4 -18 -19 -18h-188c-14 0 -19 3 -19 18v30c0 14 4 17 19 17h56v231l-52 -26c-4 -2 -8 -4 -12 -4
c-6 0 -10 6 -13 11l-17 26c-2 3 -5 7 -5 11c0 6 6 9 11 13l115 74h45c15 0 18 -4 18 -17v-319h42c15 0 19 -3 19 -17zM802 57v-39c0 -15 -4 -18 -18 -18h-231c-11 0 -14 5 -14 16c0 53 8 77 20 100c48 91 158 97 158 175c0 32 -19 45 -46 45c-58 0 -51 -59 -74 -59
c-4 0 -8 1 -12 3l-38 13c-5 1 -11 7 -11 13c0 28 41 105 142 105c76 0 129 -39 129 -117c0 -91 -69 -120 -125 -162c-35 -26 -42 -41 -43 -57h145c14 0 18 -3 18 -18z" />
    <glyph glyph-name="plusminus" unicode="&#xb1;" 
d="M505 23v-66c0 -14 -3 -17 -17 -17h-420c-14 0 -17 3 -17 17v66c0 14 4 17 17 17h420c14 0 17 -3 17 -17zM328 207v-114c0 -14 -3 -17 -17 -17h-66c-14 0 -17 3 -17 17v114h-160c-14 0 -17 3 -17 17v66c0 14 4 17 17 17h160v160c0 14 3 17 17 17h66c14 0 17 -3 17 -17
v-160h160c14 0 17 -3 17 -17v-66c0 -14 -3 -17 -17 -17h-160z" />
    <glyph glyph-name="Thorn" unicode="&#xde;" horiz-adv-x="519" 
d="M211 274h31c59 0 115 10 115 111c0 87 -53 90 -105 90h-41v-201zM211 169v-148c0 -18 -4 -21 -21 -21h-93c-17 0 -21 3 -21 21v643c0 19 4 21 21 21h93c17 0 21 -3 21 -21v-84h48c81 0 233 0 233 -188c0 -165 -123 -223 -228 -223h-53z" />
    <glyph glyph-name="onequarter" unicode="&#xbc;" horiz-adv-x="870" 
d="M778 77v-69c0 -15 -4 -18 -18 -18h-53c-15 0 -19 3 -19 18v69h-151c-15 0 -19 2 -19 17v63l160 244c3 4 7 10 13 10c4 0 7 -2 11 -3l38 -14c6 -3 14 -6 14 -13c0 -4 -3 -8 -5 -12l-144 -222h83l10 89c1 14 6 16 19 16h43c14 0 18 -4 18 -18v-89h32c15 0 19 -2 19 -18v-33
c0 -14 -5 -17 -19 -17h-32zM616 659l-236 -659c-4 -11 -11 -17 -23 -17h-51c-9 0 -21 0 -21 10c0 4 2 9 4 14l237 662c5 14 15 16 23 16h51c10 0 19 -1 19 -12c0 -5 -1 -8 -3 -14zM299 315v-30c0 -15 -4 -18 -19 -18h-188c-14 0 -19 3 -19 18v30c0 14 4 17 19 17h56v231
l-52 -26c-4 -2 -8 -4 -12 -4c-6 0 -10 6 -13 11l-17 26c-2 3 -5 7 -5 11c0 6 6 9 11 13l115 74h45c15 0 18 -4 18 -17v-319h42c15 0 19 -3 19 -17z" />
    <glyph glyph-name="divide" unicode="&#xf7;" 
d="M349 85c0 -40 -32 -71 -71 -71s-71 31 -71 71s31 71 71 71c39 0 71 -31 71 -71zM505 290v-66c0 -14 -3 -17 -17 -17h-420c-14 0 -17 3 -17 17v66c0 14 4 17 17 17h420c14 0 17 -3 17 -17zM349 429c0 -41 -32 -71 -71 -71s-71 31 -71 71s31 71 71 71c39 0 71 -32 71 -71z
" />
    <glyph glyph-name="brokenbar" unicode="&#xa6;" horiz-adv-x="400" 
d="M250 658v-316c0 -14 -3 -17 -17 -17h-66c-13 0 -17 3 -17 17v316c0 14 4 17 17 17h66c13 0 17 -3 17 -17zM250 158v-316c0 -14 -3 -17 -17 -17h-66c-13 0 -17 3 -17 17v316c0 15 4 17 17 17h66c13 0 17 -2 17 -17z" />
    <glyph glyph-name="degree" unicode="&#xb0;" 
d="M435 544c0 -87 -71 -157 -158 -157c-86 0 -157 70 -157 157c0 89 72 158 157 158c87 0 158 -69 158 -158zM277 469c43 0 76 34 76 75c0 42 -34 76 -76 76c-41 0 -75 -33 -75 -76c0 -42 33 -75 75 -75z" />
    <glyph glyph-name="thorn" unicode="&#xfe;" horiz-adv-x="519" 
d="M188 373v-271c18 -10 34 -19 73 -19c70 0 88 50 88 168c0 103 -19 160 -81 160c-42 0 -66 -25 -80 -38zM188 9v-183c0 -15 -7 -15 -19 -18l-84 -17c-3 0 -12 -3 -14 -3c-8 0 -10 4 -10 21v877c0 15 7 15 18 18l84 17c3 0 12 3 14 3c9 0 11 -4 11 -21v-233
c20 17 55 41 115 41c111 0 173 -87 173 -255c0 -175 -54 -273 -184 -273c-58 0 -83 15 -104 26z" />
    <glyph glyph-name="threequarters" unicode="&#xbe;" horiz-adv-x="870" 
d="M616 659l-236 -659c-4 -11 -11 -17 -23 -17h-51c-9 0 -21 0 -21 10c0 4 2 9 4 14l237 662c5 14 15 16 23 16h51c10 0 19 -1 19 -12c0 -5 -1 -8 -3 -14zM96 574l-34 29c-3 2 -6 6 -6 10c0 15 46 65 121 65c74 0 131 -41 131 -109c0 -53 -24 -65 -50 -86
c25 -14 63 -32 63 -100c0 -80 -71 -126 -151 -126c-47 0 -127 18 -127 38c0 3 2 7 3 11l12 40c1 3 6 10 11 10c13 0 44 -24 94 -24c44 0 68 19 68 55c0 51 -49 53 -77 53h-19c-15 0 -19 3 -19 17v40c0 15 4 18 19 18h20c14 0 63 -2 63 48c0 24 -19 40 -45 40
c-43 0 -53 -34 -67 -34c-4 0 -7 2 -10 5zM784 77v-69c0 -15 -4 -18 -18 -18h-53c-15 0 -19 3 -19 18v69h-151c-15 0 -19 2 -19 17v63l160 244c3 4 7 10 13 10c4 0 7 -2 11 -3l38 -14c6 -3 14 -6 14 -13c0 -4 -3 -8 -5 -12l-144 -222h83l10 89c1 14 6 16 19 16h43
c14 0 18 -4 18 -18v-87h32c15 0 19 -2 19 -18v-35c0 -14 -5 -17 -19 -17h-32z" />
    <glyph glyph-name="twosuperior" unicode="&#xb2;" horiz-adv-x="370" 
d="M309 324v-39c0 -15 -4 -18 -18 -18h-231c-11 0 -14 5 -14 16c0 53 8 77 20 100c48 91 158 97 158 175c0 32 -19 45 -46 45c-58 0 -51 -59 -74 -59c-4 0 -8 1 -12 3l-38 13c-5 1 -11 7 -11 13c0 28 41 105 142 105c76 0 129 -39 129 -117c0 -91 -69 -120 -125 -162
c-35 -26 -42 -41 -43 -57h145c14 0 18 -3 18 -18z" />
    <glyph glyph-name="registered" unicode="&#xae;" 
d="M513 467c0 -130 -106 -235 -235 -235s-235 105 -235 235c0 129 106 235 235 235s235 -106 235 -235zM278 267c110 0 200 90 200 200s-90 200 -200 200s-200 -90 -200 -200s90 -200 200 -200zM330 456l46 -107h-50l-39 100h-53v-100h-45v248h83c47 0 101 -8 101 -80
c0 -44 -27 -53 -43 -61zM234 489h54c21 0 38 10 38 32s-15 33 -42 33h-50v-65z" />
    <glyph glyph-name="minus" unicode="&#x2212;" 
d="M505 290v-66c0 -14 -3 -17 -17 -17h-420c-14 0 -17 3 -17 17v66c0 14 4 17 17 17h420c14 0 17 -3 17 -17z" />
    <glyph glyph-name="eth" unicode="&#xf0;" horiz-adv-x="500" 
d="M425 672l-85 -39c26 -44 127 -221 127 -390c0 -131 -64 -260 -216 -260c-147 0 -218 108 -218 265c0 163 93 263 201 263c31 0 51 -12 60 -18l2 2c-12 28 -31 68 -47 95l-92 -43c-2 -1 -5 -2 -8 -2c-4 0 -5 1 -8 8l-17 37c-2 4 -3 6 -3 9c0 4 3 5 8 8l88 41
c-13 22 -48 67 -48 73c0 8 7 11 13 12l61 7c3 1 6 1 9 1c20 0 46 -39 56 -52l92 43c3 1 5 3 8 3c5 0 6 -3 9 -9l15 -33c2 -5 4 -8 4 -11c0 -6 -5 -8 -11 -10zM251 83c74 0 89 69 89 164c0 93 -15 164 -89 164c-71 0 -83 -70 -83 -165c0 -93 12 -163 83 -163z" />
    <glyph glyph-name="multiply" unicode="&#xd7;" 
d="M462 119l-47 -47c-3 -3 -7 -8 -12 -8s-9 4 -12 8l-113 115l-113 -115c-4 -5 -8 -8 -12 -8c-5 0 -9 5 -12 8l-48 47c-3 2 -7 7 -7 12s4 9 7 12l115 113l-115 113c-3 2 -7 7 -7 12s4 9 7 12l48 48c3 3 7 7 11 7c5 0 9 -3 13 -7l113 -115l113 115c3 3 7 7 12 7
c4 0 8 -3 12 -7l47 -47c4 -4 8 -8 8 -12c0 -5 -4 -10 -8 -13l-114 -113l114 -113c3 -3 8 -7 8 -11c0 -5 -4 -9 -8 -13z" />
    <glyph glyph-name="threesuperior" unicode="&#xb3;" horiz-adv-x="370" 
d="M89 574l-34 29c-3 2 -6 6 -6 10c0 15 46 65 121 65c74 0 131 -41 131 -109c0 -53 -24 -65 -50 -86c25 -14 63 -32 63 -100c0 -80 -71 -126 -151 -126c-47 0 -127 18 -127 38c0 3 2 7 3 11l12 40c1 3 6 10 11 10c13 0 44 -24 94 -24c44 0 68 19 68 55c0 51 -49 53 -77 53
h-19c-15 0 -19 3 -19 17v40c0 15 4 18 19 18h20c14 0 63 -2 63 48c0 24 -19 40 -45 40c-43 0 -53 -34 -67 -34c-4 0 -7 2 -10 5z" />
    <glyph glyph-name="copyright" unicode="&#xa9;" 
d="M278 232c-130 0 -235 105 -235 235c0 129 105 235 235 235c129 0 235 -106 235 -235c0 -130 -106 -235 -235 -235zM78 467c0 -110 90 -200 200 -200s200 90 200 200s-90 200 -200 200s-200 -90 -200 -200zM358 408l26 -32c-11 -10 -38 -39 -95 -39
c-71 0 -136 57 -136 134s66 134 136 134c55 0 84 -29 95 -39l-26 -33c-12 11 -34 31 -69 31c-43 0 -93 -34 -93 -93c0 -62 51 -93 90 -93c42 0 60 19 72 30z" />
    <glyph glyph-name="Aacute" unicode="&#xc1;" horiz-adv-x="593" 
d="M352 273l-41 172c-9 39 -17 98 -22 140h-2c-4 -42 -13 -100 -23 -140l-44 -172h132zM205 183l-41 -162c-4 -18 -6 -21 -21 -21h-101c-13 0 -19 2 -20 9c0 5 3 13 4 17l197 644c4 13 5 15 22 15h104c15 0 17 -4 21 -16l196 -645c1 -4 4 -12 4 -16c0 -6 -10 -8 -20 -8h-112
c-10 0 -12 3 -17 21l-44 162h-172zM428 829l-176 -70c-5 -2 -9 -4 -14 -4c-6 0 -9 6 -13 14l-16 32c-2 4 -5 9 -5 14c0 6 5 9 13 14l163 96c4 2 9 6 14 6c7 0 10 -7 14 -14l31 -61c2 -4 5 -9 5 -14c0 -7 -8 -10 -16 -13z" />
    <glyph glyph-name="Acircumflex" unicode="&#xc2;" horiz-adv-x="593" 
d="M352 273l-41 172c-9 39 -17 98 -22 140h-2c-4 -42 -13 -100 -23 -140l-44 -172h132zM205 183l-41 -162c-4 -18 -6 -21 -21 -21h-101c-13 0 -19 2 -20 9c0 5 3 13 4 17l197 644c4 13 5 15 22 15h104c15 0 17 -4 21 -16l196 -645c1 -4 4 -12 4 -16c0 -6 -10 -8 -20 -8h-112
c-10 0 -12 3 -17 21l-44 162h-172zM430 800l-19 -32c-7 -12 -10 -13 -14 -13c-5 0 -9 3 -14 6l-86 49l-86 -49c-5 -3 -9 -6 -14 -6c-4 0 -7 1 -14 13l-19 32c-2 3 -6 9 -6 14c0 6 7 10 12 14l113 89c4 3 9 8 14 8s10 -5 14 -8l113 -89c5 -4 12 -8 12 -14c0 -5 -4 -11 -6 -14
z" />
    <glyph glyph-name="Adieresis" unicode="&#xc4;" horiz-adv-x="593" 
d="M352 273l-41 172c-9 39 -17 98 -22 140h-2c-4 -42 -13 -100 -23 -140l-44 -172h132zM205 183l-41 -162c-4 -18 -6 -21 -21 -21h-101c-13 0 -19 2 -20 9c0 5 3 13 4 17l197 644c4 13 5 15 22 15h104c15 0 17 -4 21 -16l196 -645c1 -4 4 -12 4 -16c0 -6 -10 -8 -20 -8h-112
c-10 0 -12 3 -17 21l-44 162h-172zM278 843c0 -38 -31 -69 -69 -69s-69 31 -69 69s30 69 69 69c38 0 69 -31 69 -69zM455 843c0 -38 -31 -69 -69 -69s-69 31 -69 69s30 69 69 69s69 -32 69 -69z" />
    <glyph glyph-name="Agrave" unicode="&#xc0;" horiz-adv-x="593" 
d="M352 273l-41 172c-9 39 -17 98 -22 140h-2c-4 -42 -13 -100 -23 -140l-44 -172h132zM205 183l-41 -162c-4 -18 -6 -21 -21 -21h-101c-13 0 -19 2 -20 9c0 5 3 13 4 17l197 644c4 13 5 15 22 15h104c15 0 17 -4 21 -16l196 -645c1 -4 4 -12 4 -16c0 -6 -10 -8 -20 -8h-112
c-10 0 -12 3 -17 21l-44 162h-172zM384 801l-16 -32c-4 -8 -7 -14 -13 -14c-5 0 -9 2 -14 4l-176 70c-8 3 -16 6 -16 13c0 5 3 10 5 14l31 61c4 7 7 14 14 14c5 0 10 -4 14 -6l163 -96c8 -5 13 -8 13 -14c0 -5 -3 -10 -5 -14z" />
    <glyph glyph-name="Aring" unicode="&#xc5;" horiz-adv-x="593" 
d="M352 273l-41 172c-9 39 -17 98 -22 140h-2c-4 -42 -13 -100 -23 -140l-44 -172h132zM205 183l-41 -162c-4 -18 -6 -21 -21 -21h-101c-13 0 -19 2 -20 9c0 5 3 13 4 17l197 644c4 13 5 15 22 15h104c15 0 17 -4 21 -16l196 -645c1 -4 4 -12 4 -16c0 -6 -10 -8 -20 -8h-112
c-10 0 -12 3 -17 21l-44 162h-172zM402 859c0 -58 -48 -104 -105 -104s-104 46 -104 104c0 59 47 105 104 105s105 -46 105 -105zM297 817c24 0 43 18 43 42s-19 43 -43 43c-23 0 -42 -18 -42 -43c0 -24 20 -42 42 -42z" />
    <glyph glyph-name="Atilde" unicode="&#xc3;" horiz-adv-x="593" 
d="M352 273l-41 172c-9 39 -17 98 -22 140h-2c-4 -42 -13 -100 -23 -140l-44 -172h132zM205 183l-41 -162c-4 -18 -6 -21 -21 -21h-101c-13 0 -19 2 -20 9c0 5 3 13 4 17l197 644c4 13 5 15 22 15h104c15 0 17 -4 21 -16l196 -645c1 -4 4 -12 4 -16c0 -6 -10 -8 -20 -8h-112
c-10 0 -12 3 -17 21l-44 162h-172zM397 906l47 -24c3 -2 7 -5 7 -9c0 -5 -33 -94 -105 -94c-48 0 -68 35 -96 35c-30 0 -35 -36 -45 -36c-4 0 -6 1 -9 3l-47 24c-4 2 -7 5 -7 8s29 94 103 94c50 0 75 -35 102 -35s31 36 43 36c2 0 5 -1 7 -2z" />
    <glyph glyph-name="Ccedilla" unicode="&#xc7;" horiz-adv-x="500" 
d="M319 -17l-4 -39c33 -4 75 -18 75 -75c0 -52 -41 -90 -114 -90c-37 0 -75 6 -75 19c0 3 0 5 1 9l9 40s3 4 5 4c4 0 19 -7 44 -7c19 0 30 9 30 25c0 23 -31 24 -40 24c-17 0 -22 2 -22 11c0 2 0 -4 1 7l9 80c-99 20 -189 126 -189 346c0 230 86 365 259 365
c75 0 164 -55 164 -74c0 -4 0 -8 -5 -15l-37 -56c-4 -6 -8 -10 -12 -10c-17 0 -50 47 -103 47c-86 0 -124 -59 -124 -231c0 -170 21 -272 124 -272c56 0 92 37 112 37c4 0 7 -3 11 -10l31 -56c3 -6 5 -10 5 -15c0 -16 -75 -64 -155 -64z" />
    <glyph glyph-name="Eacute" unicode="&#xc9;" horiz-adv-x="481" 
d="M446 87v-66c0 -18 -3 -21 -20 -21h-329c-17 0 -21 3 -21 21v643c0 18 4 21 21 21h328c20 0 25 -2 25 -11c0 -5 -1 -7 -3 -14l-19 -67c-4 -15 -15 -16 -23 -16h-194v-165h170c18 0 21 -3 21 -21v-66c0 -18 -4 -21 -21 -21h-170v-196h214c18 0 21 -3 21 -21zM382 829
l-176 -70c-5 -2 -9 -4 -14 -4c-6 0 -9 6 -13 14l-16 32c-2 4 -5 9 -5 14c0 6 5 9 13 14l163 96c4 2 9 6 14 6c7 0 10 -7 14 -14l31 -61c2 -4 5 -9 5 -14c0 -7 -8 -10 -16 -13z" />
    <glyph glyph-name="Ecircumflex" unicode="&#xca;" horiz-adv-x="481" 
d="M446 87v-66c0 -18 -3 -21 -20 -21h-329c-17 0 -21 3 -21 21v643c0 18 4 21 21 21h328c20 0 25 -2 25 -11c0 -5 -1 -7 -3 -14l-19 -67c-4 -15 -15 -16 -23 -16h-194v-165h170c18 0 21 -3 21 -21v-66c0 -18 -4 -21 -21 -21h-170v-196h214c18 0 21 -3 21 -21zM384 800
l-19 -32c-7 -12 -10 -13 -14 -13c-5 0 -9 3 -14 6l-86 49l-86 -49c-5 -3 -9 -6 -14 -6c-4 0 -7 1 -14 13l-19 32c-2 3 -6 9 -6 14c0 6 7 10 12 14l113 89c4 3 9 8 14 8s10 -5 14 -8l113 -89c5 -4 12 -8 12 -14c0 -5 -4 -11 -6 -14z" />
    <glyph glyph-name="Edieresis" unicode="&#xcb;" horiz-adv-x="481" 
d="M446 87v-66c0 -18 -3 -21 -20 -21h-329c-17 0 -21 3 -21 21v643c0 18 4 21 21 21h328c20 0 25 -2 25 -11c0 -5 -1 -7 -3 -14l-19 -67c-4 -15 -15 -16 -23 -16h-194v-165h170c18 0 21 -3 21 -21v-66c0 -18 -4 -21 -21 -21h-170v-196h214c18 0 21 -3 21 -21zM232 843
c0 -38 -31 -69 -69 -69s-69 31 -69 69s30 69 69 69c38 0 69 -31 69 -69zM409 843c0 -38 -31 -69 -69 -69s-69 31 -69 69s30 69 69 69s69 -32 69 -69z" />
    <glyph glyph-name="Egrave" unicode="&#xc8;" horiz-adv-x="481" 
d="M446 87v-66c0 -18 -3 -21 -20 -21h-329c-17 0 -21 3 -21 21v643c0 18 4 21 21 21h328c20 0 25 -2 25 -11c0 -5 -1 -7 -3 -14l-19 -67c-4 -15 -15 -16 -23 -16h-194v-165h170c18 0 21 -3 21 -21v-66c0 -18 -4 -21 -21 -21h-170v-196h214c18 0 21 -3 21 -21zM338 801
l-16 -32c-4 -8 -7 -14 -13 -14c-5 0 -9 2 -14 4l-176 70c-8 3 -16 6 -16 13c0 5 3 10 5 14l31 61c4 7 7 14 14 14c5 0 10 -4 14 -6l163 -96c8 -5 13 -8 13 -14c0 -5 -3 -10 -5 -14z" />
    <glyph glyph-name="Iacute" unicode="&#xcd;" horiz-adv-x="370" 
d="M328 75v-54c0 -18 -4 -21 -21 -21h-245c-17 0 -21 3 -21 21v54c0 18 4 21 21 21h55v493h-55c-17 0 -21 3 -21 21v54c0 18 4 21 21 21h245c17 0 21 -3 21 -21v-54c0 -18 -4 -21 -21 -21h-55v-493h55c17 0 21 -3 21 -21zM317 829l-176 -70c-5 -2 -9 -4 -14 -4
c-6 0 -9 6 -13 14l-16 32c-2 4 -5 9 -5 14c0 6 5 9 13 14l163 96c4 2 9 6 14 6c7 0 10 -7 14 -14l31 -61c2 -4 5 -9 5 -14c0 -7 -8 -10 -16 -13z" />
    <glyph glyph-name="Icircumflex" unicode="&#xce;" horiz-adv-x="370" 
d="M328 75v-54c0 -18 -4 -21 -21 -21h-245c-17 0 -21 3 -21 21v54c0 18 4 21 21 21h55v493h-55c-17 0 -21 3 -21 21v54c0 18 4 21 21 21h245c17 0 21 -3 21 -21v-54c0 -18 -4 -21 -21 -21h-55v-493h55c17 0 21 -3 21 -21zM319 800l-19 -32c-7 -12 -10 -13 -14 -13
c-5 0 -9 3 -14 6l-86 49l-86 -49c-5 -3 -9 -6 -14 -6c-4 0 -7 1 -14 13l-19 32c-2 3 -6 9 -6 14c0 6 7 10 12 14l113 89c4 3 9 8 14 8s10 -5 14 -8l113 -89c5 -4 12 -8 12 -14c0 -5 -4 -11 -6 -14z" />
    <glyph glyph-name="Idieresis" unicode="&#xcf;" horiz-adv-x="370" 
d="M328 75v-54c0 -18 -4 -21 -21 -21h-245c-17 0 -21 3 -21 21v54c0 18 4 21 21 21h55v493h-55c-17 0 -21 3 -21 21v54c0 18 4 21 21 21h245c17 0 21 -3 21 -21v-54c0 -18 -4 -21 -21 -21h-55v-493h55c17 0 21 -3 21 -21zM167 843c0 -38 -31 -69 -69 -69s-69 31 -69 69
s30 69 69 69c38 0 69 -31 69 -69zM344 843c0 -38 -31 -69 -69 -69s-69 31 -69 69s30 69 69 69s69 -32 69 -69z" />
    <glyph glyph-name="Igrave" unicode="&#xcc;" horiz-adv-x="370" 
d="M328 75v-54c0 -18 -4 -21 -21 -21h-245c-17 0 -21 3 -21 21v54c0 18 4 21 21 21h55v493h-55c-17 0 -21 3 -21 21v54c0 18 4 21 21 21h245c17 0 21 -3 21 -21v-54c0 -18 -4 -21 -21 -21h-55v-493h55c17 0 21 -3 21 -21zM273 801l-16 -32c-4 -8 -7 -14 -13 -14
c-5 0 -9 2 -14 4l-176 70c-8 3 -16 6 -16 13c0 5 3 10 5 14l31 61c4 7 7 14 14 14c5 0 10 -4 14 -6l163 -96c8 -5 13 -8 13 -14c0 -5 -3 -10 -5 -14z" />
    <glyph glyph-name="Ntilde" unicode="&#xd1;" horiz-adv-x="630" 
d="M547 664v-643c0 -18 -3 -21 -21 -21h-66c-14 0 -17 2 -23 14l-183 341c-30 56 -47 91 -57 136h-2c0 -13 3 -64 3 -110v-360c0 -18 -4 -21 -21 -21h-73c-17 0 -21 3 -21 21v643c0 18 4 21 21 21h82c15 0 17 -2 23 -13l165 -310c28 -53 47 -104 59 -145h2
c0 32 -3 102 -3 130v317c0 18 4 21 21 21h73c17 0 21 -3 21 -21zM416 906l47 -24c3 -2 7 -5 7 -9c0 -5 -33 -94 -105 -94c-48 0 -68 35 -96 35c-30 0 -35 -36 -45 -36c-4 0 -6 1 -9 3l-47 24c-4 2 -7 5 -7 8s29 94 103 94c50 0 75 -35 102 -35s31 36 43 36c2 0 5 -1 7 -2z
" />
    <glyph glyph-name="Oacute" unicode="&#xd3;" horiz-adv-x="593" 
d="M545 342c0 -242 -94 -359 -249 -359s-249 117 -249 359c0 243 95 360 249 360s249 -118 249 -360zM296 88c75 0 107 98 107 254c0 157 -32 255 -107 255s-107 -99 -107 -255s32 -254 107 -254zM428 829l-176 -70c-5 -2 -9 -4 -14 -4c-6 0 -9 6 -13 14l-16 32
c-2 4 -5 9 -5 14c0 6 5 9 13 14l163 96c4 2 9 6 14 6c7 0 10 -7 14 -14l31 -61c2 -4 5 -9 5 -14c0 -7 -8 -10 -16 -13z" />
    <glyph glyph-name="Ocircumflex" unicode="&#xd4;" horiz-adv-x="593" 
d="M545 342c0 -242 -94 -359 -249 -359s-249 117 -249 359c0 243 95 360 249 360s249 -118 249 -360zM296 88c75 0 107 98 107 254c0 157 -32 255 -107 255s-107 -99 -107 -255s32 -254 107 -254zM430 800l-19 -32c-7 -12 -10 -13 -14 -13c-5 0 -9 3 -14 6l-86 49l-86 -49
c-5 -3 -9 -6 -14 -6c-4 0 -7 1 -14 13l-19 32c-2 3 -6 9 -6 14c0 6 7 10 12 14l113 89c4 3 9 8 14 8s10 -5 14 -8l113 -89c5 -4 12 -8 12 -14c0 -5 -4 -11 -6 -14z" />
    <glyph glyph-name="Odieresis" unicode="&#xd6;" horiz-adv-x="593" 
d="M545 342c0 -242 -94 -359 -249 -359s-249 117 -249 359c0 243 95 360 249 360s249 -118 249 -360zM296 88c75 0 107 98 107 254c0 157 -32 255 -107 255s-107 -99 -107 -255s32 -254 107 -254zM278 843c0 -38 -31 -69 -69 -69s-69 31 -69 69s30 69 69 69
c38 0 69 -31 69 -69zM455 843c0 -38 -31 -69 -69 -69s-69 31 -69 69s30 69 69 69s69 -32 69 -69z" />
    <glyph glyph-name="Ograve" unicode="&#xd2;" horiz-adv-x="593" 
d="M545 342c0 -242 -94 -359 -249 -359s-249 117 -249 359c0 243 95 360 249 360s249 -118 249 -360zM296 88c75 0 107 98 107 254c0 157 -32 255 -107 255s-107 -99 -107 -255s32 -254 107 -254zM384 801l-16 -32c-4 -8 -7 -14 -13 -14c-5 0 -9 2 -14 4l-176 70
c-8 3 -16 6 -16 13c0 5 3 10 5 14l31 61c4 7 7 14 14 14c5 0 10 -4 14 -6l163 -96c8 -5 13 -8 13 -14c0 -5 -3 -10 -5 -14z" />
    <glyph glyph-name="Otilde" unicode="&#xd5;" horiz-adv-x="593" 
d="M545 342c0 -242 -94 -359 -249 -359s-249 117 -249 359c0 243 95 360 249 360s249 -118 249 -360zM296 88c75 0 107 98 107 254c0 157 -32 255 -107 255s-107 -99 -107 -255s32 -254 107 -254zM397 906l47 -24c3 -2 7 -5 7 -9c0 -5 -33 -94 -105 -94c-48 0 -68 35 -96 35
c-30 0 -35 -36 -45 -36c-4 0 -6 1 -9 3l-47 24c-4 2 -7 5 -7 8s29 94 103 94c50 0 75 -35 102 -35s31 36 43 36c2 0 5 -1 7 -2z" />
    <glyph glyph-name="Scaron" unicode="&#x160;" horiz-adv-x="481" 
d="M437 626l-33 -66c-3 -6 -7 -10 -11 -10c-6 0 -68 44 -140 44c-46 0 -94 -18 -94 -78c0 -76 117 -90 205 -155c51 -38 86 -91 86 -167c0 -127 -90 -211 -216 -211c-102 0 -209 44 -209 60c0 3 3 10 5 16l23 66c2 6 7 10 11 10c6 0 80 -44 166 -44c56 0 90 30 90 92
c0 89 -102 98 -204 160c-53 32 -87 72 -87 155c0 144 104 204 220 204c95 0 193 -44 193 -61c0 -3 -1 -7 -5 -15zM368 852l-113 -89c-4 -3 -9 -8 -14 -8s-10 5 -14 8l-113 89c-5 4 -12 8 -12 14c0 5 4 11 6 14l19 32c7 12 10 13 14 13c5 0 9 -3 14 -6l86 -49l86 49
c5 3 9 6 14 6c4 0 7 -1 14 -13l19 -32c2 -3 6 -9 6 -14c0 -6 -7 -10 -12 -14z" />
    <glyph glyph-name="Uacute" unicode="&#xda;" horiz-adv-x="630" 
d="M556 664v-432c0 -149 -52 -249 -241 -249s-241 100 -241 249v432c0 18 4 21 21 21h93c17 0 21 -3 21 -21v-432c0 -72 5 -141 106 -141s106 69 106 141v432c0 18 4 21 21 21h93c17 0 21 -3 21 -21zM447 829l-176 -70c-5 -2 -9 -4 -14 -4c-6 0 -9 6 -13 14l-16 32
c-2 4 -5 9 -5 14c0 6 5 9 13 14l163 96c4 2 9 6 14 6c7 0 10 -7 14 -14l31 -61c2 -4 5 -9 5 -14c0 -7 -8 -10 -16 -13z" />
    <glyph glyph-name="Ucircumflex" unicode="&#xdb;" horiz-adv-x="630" 
d="M556 664v-432c0 -149 -52 -249 -241 -249s-241 100 -241 249v432c0 18 4 21 21 21h93c17 0 21 -3 21 -21v-432c0 -72 5 -141 106 -141s106 69 106 141v432c0 18 4 21 21 21h93c17 0 21 -3 21 -21zM449 800l-19 -32c-7 -12 -10 -13 -14 -13c-5 0 -9 3 -14 6l-86 49
l-86 -49c-5 -3 -9 -6 -14 -6c-4 0 -7 1 -14 13l-19 32c-2 3 -6 9 -6 14c0 6 7 10 12 14l113 89c4 3 9 8 14 8s10 -5 14 -8l113 -89c5 -4 12 -8 12 -14c0 -5 -4 -11 -6 -14z" />
    <glyph glyph-name="Udieresis" unicode="&#xdc;" horiz-adv-x="630" 
d="M556 664v-432c0 -149 -52 -249 -241 -249s-241 100 -241 249v432c0 18 4 21 21 21h93c17 0 21 -3 21 -21v-432c0 -72 5 -141 106 -141s106 69 106 141v432c0 18 4 21 21 21h93c17 0 21 -3 21 -21zM297 843c0 -38 -31 -69 -69 -69s-69 31 -69 69s30 69 69 69
c38 0 69 -31 69 -69zM474 843c0 -38 -31 -69 -69 -69s-69 31 -69 69s30 69 69 69s69 -32 69 -69z" />
    <glyph glyph-name="Ugrave" unicode="&#xd9;" horiz-adv-x="630" 
d="M556 664v-432c0 -149 -52 -249 -241 -249s-241 100 -241 249v432c0 18 4 21 21 21h93c17 0 21 -3 21 -21v-432c0 -72 5 -141 106 -141s106 69 106 141v432c0 18 4 21 21 21h93c17 0 21 -3 21 -21zM403 801l-16 -32c-4 -8 -7 -14 -13 -14c-5 0 -9 2 -14 4l-176 70
c-8 3 -16 6 -16 13c0 5 3 10 5 14l31 61c4 7 7 14 14 14c5 0 10 -4 14 -6l163 -96c8 -5 13 -8 13 -14c0 -5 -3 -10 -5 -14z" />
    <glyph glyph-name="Yacute" unicode="&#xdd;" horiz-adv-x="519" 
d="M328 281v-260c0 -18 -4 -21 -21 -21h-93c-17 0 -21 3 -21 21v260l-188 364c-4 7 -7 14 -7 21c0 6 8 9 21 11l100 16c6 1 10 1 11 1c4 0 10 -2 15 -13l81 -171c11 -24 26 -57 40 -109h2c18 59 31 90 44 117l74 156c9 20 12 20 17 20c4 0 10 -1 15 -2l85 -18
c9 -2 18 -6 18 -13c0 -4 -3 -8 -7 -16zM391 829l-176 -70c-5 -2 -9 -4 -14 -4c-6 0 -9 6 -13 14l-16 32c-2 4 -5 9 -5 14c0 6 5 9 13 14l163 96c4 2 9 6 14 6c7 0 10 -7 14 -14l31 -61c2 -4 5 -9 5 -14c0 -7 -8 -10 -16 -13z" />
    <glyph glyph-name="Ydieresis" unicode="&#x178;" horiz-adv-x="519" 
d="M328 281v-260c0 -18 -4 -21 -21 -21h-93c-17 0 -21 3 -21 21v260l-188 364c-4 7 -7 14 -7 21c0 6 8 9 21 11l100 16c6 1 10 1 11 1c4 0 10 -2 15 -13l81 -171c11 -24 26 -57 40 -109h2c18 59 31 90 44 117l74 156c9 20 12 20 17 20c4 0 10 -1 15 -2l85 -18
c9 -2 18 -6 18 -13c0 -4 -3 -8 -7 -16zM241 843c0 -38 -31 -69 -69 -69s-69 31 -69 69s30 69 69 69c38 0 69 -31 69 -69zM418 843c0 -38 -31 -69 -69 -69s-69 31 -69 69s30 69 69 69s69 -32 69 -69z" />
    <glyph glyph-name="Zcaron" unicode="&#x17d;" horiz-adv-x="500" 
d="M482 96l-11 -78c-3 -17 -5 -18 -22 -18h-401c-14 0 -17 3 -17 17v83l269 465h-246c-11 0 -14 5 -14 12c0 4 0 4 2 12l20 78c4 15 5 18 22 18h344c18 0 21 -3 21 -20v-90l-267 -455h288c9 -2 14 -5 14 -12c0 -2 -1 -5 -2 -12zM378 852l-113 -89c-4 -3 -9 -8 -14 -8
s-10 5 -14 8l-113 89c-5 4 -12 8 -12 14c0 5 4 11 6 14l19 32c7 12 10 13 14 13c5 0 9 -3 14 -6l86 -49l86 49c5 3 9 6 14 6c4 0 7 -1 14 -13l19 -32c2 -3 6 -9 6 -14c0 -6 -7 -10 -12 -14z" />
    <glyph glyph-name="aacute" unicode="&#xe1;" horiz-adv-x="481" 
d="M433 18l-76 -31c-4 -1 -9 -4 -13 -4c-9 0 -24 35 -29 60c-20 -20 -55 -60 -130 -60c-92 0 -150 60 -150 154c0 169 182 169 261 169v31c0 45 -8 74 -71 74c-56 0 -111 -30 -124 -30c-5 0 -9 6 -10 10l-20 61c-2 4 -3 8 -3 12c0 23 99 47 176 47c125 0 172 -57 172 -161
v-193c0 -97 26 -110 26 -130c0 -4 -4 -7 -9 -9zM296 114v110c-25 0 -141 8 -141 -80c0 -39 28 -68 66 -68c37 0 63 26 75 38zM372 638l-176 -70c-5 -2 -9 -4 -14 -4c-6 0 -9 6 -13 14l-16 32c-2 4 -5 9 -5 14c0 6 5 9 13 14l163 96c4 2 9 6 14 6c7 0 10 -7 14 -14l31 -61
c2 -4 5 -9 5 -14c0 -7 -8 -10 -16 -13z" />
    <glyph glyph-name="acircumflex" unicode="&#xe2;" horiz-adv-x="481" 
d="M433 18l-76 -31c-4 -1 -9 -4 -13 -4c-9 0 -24 35 -29 60c-20 -20 -55 -60 -130 -60c-92 0 -150 60 -150 154c0 169 182 169 261 169v31c0 45 -8 74 -71 74c-56 0 -111 -30 -124 -30c-5 0 -9 6 -10 10l-20 61c-2 4 -3 8 -3 12c0 23 99 47 176 47c125 0 172 -57 172 -161
v-193c0 -97 26 -110 26 -130c0 -4 -4 -7 -9 -9zM296 114v110c-25 0 -141 8 -141 -80c0 -39 28 -68 66 -68c37 0 63 26 75 38zM374 609l-19 -32c-7 -12 -10 -13 -14 -13c-5 0 -9 3 -14 6l-86 49l-86 -49c-5 -3 -9 -6 -14 -6c-4 0 -7 1 -14 13l-19 32c-2 3 -6 9 -6 14
c0 6 7 10 12 14l113 89c4 3 9 8 14 8s10 -5 14 -8l113 -89c5 -4 12 -8 12 -14c0 -5 -4 -11 -6 -14z" />
    <glyph glyph-name="adieresis" unicode="&#xe4;" horiz-adv-x="481" 
d="M433 18l-76 -31c-4 -1 -9 -4 -13 -4c-9 0 -24 35 -29 60c-20 -20 -55 -60 -130 -60c-92 0 -150 60 -150 154c0 169 182 169 261 169v31c0 45 -8 74 -71 74c-56 0 -111 -30 -124 -30c-5 0 -9 6 -10 10l-20 61c-2 4 -3 8 -3 12c0 23 99 47 176 47c125 0 172 -57 172 -161
v-193c0 -97 26 -110 26 -130c0 -4 -4 -7 -9 -9zM296 114v110c-25 0 -141 8 -141 -80c0 -39 28 -68 66 -68c37 0 63 26 75 38zM222 652c0 -38 -31 -69 -69 -69s-69 31 -69 69s30 69 69 69c38 0 69 -31 69 -69zM399 652c0 -38 -31 -69 -69 -69s-69 31 -69 69s30 69 69 69
s69 -32 69 -69z" />
    <glyph glyph-name="agrave" unicode="&#xe0;" horiz-adv-x="481" 
d="M433 18l-76 -31c-4 -1 -9 -4 -13 -4c-9 0 -24 35 -29 60c-20 -20 -55 -60 -130 -60c-92 0 -150 60 -150 154c0 169 182 169 261 169v31c0 45 -8 74 -71 74c-56 0 -111 -30 -124 -30c-5 0 -9 6 -10 10l-20 61c-2 4 -3 8 -3 12c0 23 99 47 176 47c125 0 172 -57 172 -161
v-193c0 -97 26 -110 26 -130c0 -4 -4 -7 -9 -9zM296 114v110c-25 0 -141 8 -141 -80c0 -39 28 -68 66 -68c37 0 63 26 75 38zM328 610l-16 -32c-4 -8 -7 -14 -13 -14c-5 0 -9 2 -14 4l-176 70c-8 3 -16 6 -16 13c0 5 3 10 5 14l31 61c4 7 7 14 14 14c5 0 10 -4 14 -6
l163 -96c8 -5 13 -8 13 -14c0 -5 -3 -10 -5 -14z" />
    <glyph glyph-name="aring" unicode="&#xe5;" horiz-adv-x="481" 
d="M433 18l-76 -31c-4 -1 -9 -4 -13 -4c-9 0 -24 35 -29 60c-20 -20 -55 -60 -130 -60c-92 0 -150 60 -150 154c0 169 182 169 261 169v31c0 45 -8 74 -71 74c-56 0 -111 -30 -124 -30c-5 0 -9 6 -10 10l-20 61c-2 4 -3 8 -3 12c0 23 99 47 176 47c125 0 172 -57 172 -161
v-193c0 -97 26 -110 26 -130c0 -4 -4 -7 -9 -9zM296 114v110c-25 0 -141 8 -141 -80c0 -39 28 -68 66 -68c37 0 63 26 75 38zM346 668c0 -58 -48 -104 -105 -104s-104 46 -104 104c0 59 47 105 104 105s105 -46 105 -105zM241 626c24 0 43 18 43 42s-19 43 -43 43
c-23 0 -42 -18 -42 -43c0 -24 20 -42 42 -42z" />
    <glyph glyph-name="atilde" unicode="&#xe3;" horiz-adv-x="481" 
d="M433 18l-76 -31c-4 -1 -9 -4 -13 -4c-9 0 -24 35 -29 60c-20 -20 -55 -60 -130 -60c-92 0 -150 60 -150 154c0 169 182 169 261 169v31c0 45 -8 74 -71 74c-56 0 -111 -30 -124 -30c-5 0 -9 6 -10 10l-20 61c-2 4 -3 8 -3 12c0 23 99 47 176 47c125 0 172 -57 172 -161
v-193c0 -97 26 -110 26 -130c0 -4 -4 -7 -9 -9zM296 114v110c-25 0 -141 8 -141 -80c0 -39 28 -68 66 -68c37 0 63 26 75 38zM341 715l47 -24c3 -2 7 -5 7 -9c0 -5 -33 -94 -105 -94c-48 0 -68 35 -96 35c-30 0 -35 -36 -45 -36c-4 0 -6 1 -9 3l-47 24c-4 2 -7 5 -7 8
s29 94 103 94c50 0 75 -35 102 -35s31 36 43 36c2 0 5 -1 7 -2z" />
    <glyph glyph-name="ccedilla" unicode="&#xe7;" horiz-adv-x="426" 
d="M279 -17l-2 -35c26 0 71 -17 71 -72c0 -52 -40 -88 -109 -88c-34 0 -73 5 -73 18c0 3 1 8 2 12l7 34c1 5 1 8 6 8s19 -7 42 -7c19 0 32 10 32 23c0 20 -27 23 -43 23c-15 0 -19 3 -19 11c0 7 1 14 2 21l5 59c-76 9 -159 91 -159 247c0 169 85 274 233 274
c54 0 142 -30 142 -61c0 -3 -2 -6 -3 -9l-37 -65c-2 -2 -4 -5 -7 -5c-10 0 -43 40 -95 40c-68 0 -98 -52 -98 -167c0 -110 26 -161 103 -161c51 0 71 34 89 34c3 0 5 -2 7 -5l26 -66c1 -3 3 -7 3 -10c0 -24 -80 -53 -125 -53z" />
    <glyph glyph-name="eacute" unicode="&#xe9;" horiz-adv-x="500" 
d="M416 113l25 -60c2 -3 3 -7 3 -11c0 -26 -100 -59 -179 -59c-132 0 -224 75 -224 259c0 159 85 269 219 269c170 0 200 -152 200 -273c0 -19 -4 -25 -23 -25h-269c0 -56 16 -125 110 -125c72 0 113 33 127 33c5 0 9 -4 11 -8zM168 306h157c0 41 -3 112 -72 112
c-78 0 -82 -84 -85 -112zM382 638l-176 -70c-5 -2 -9 -4 -14 -4c-6 0 -9 6 -13 14l-16 32c-2 4 -5 9 -5 14c0 6 5 9 13 14l163 96c4 2 9 6 14 6c7 0 10 -7 14 -14l31 -61c2 -4 5 -9 5 -14c0 -7 -8 -10 -16 -13z" />
    <glyph glyph-name="ecircumflex" unicode="&#xea;" horiz-adv-x="500" 
d="M416 113l25 -60c2 -3 3 -7 3 -11c0 -26 -100 -59 -179 -59c-132 0 -224 75 -224 259c0 159 85 269 219 269c170 0 200 -152 200 -273c0 -19 -4 -25 -23 -25h-269c0 -56 16 -125 110 -125c72 0 113 33 127 33c5 0 9 -4 11 -8zM168 306h157c0 41 -3 112 -72 112
c-78 0 -82 -84 -85 -112zM384 609l-19 -32c-7 -12 -10 -13 -14 -13c-5 0 -9 3 -14 6l-86 49l-86 -49c-5 -3 -9 -6 -14 -6c-4 0 -7 1 -14 13l-19 32c-2 3 -6 9 -6 14c0 6 7 10 12 14l113 89c4 3 9 8 14 8s10 -5 14 -8l113 -89c5 -4 12 -8 12 -14c0 -5 -4 -11 -6 -14z" />
    <glyph glyph-name="edieresis" unicode="&#xeb;" horiz-adv-x="500" 
d="M416 113l25 -60c2 -3 3 -7 3 -11c0 -26 -100 -59 -179 -59c-132 0 -224 75 -224 259c0 159 85 269 219 269c170 0 200 -152 200 -273c0 -19 -4 -25 -23 -25h-269c0 -56 16 -125 110 -125c72 0 113 33 127 33c5 0 9 -4 11 -8zM168 306h157c0 41 -3 112 -72 112
c-78 0 -82 -84 -85 -112zM232 652c0 -38 -31 -69 -69 -69s-69 31 -69 69s30 69 69 69c38 0 69 -31 69 -69zM409 652c0 -38 -31 -69 -69 -69s-69 31 -69 69s30 69 69 69s69 -32 69 -69z" />
    <glyph glyph-name="egrave" unicode="&#xe8;" horiz-adv-x="500" 
d="M416 113l25 -60c2 -3 3 -7 3 -11c0 -26 -100 -59 -179 -59c-132 0 -224 75 -224 259c0 159 85 269 219 269c170 0 200 -152 200 -273c0 -19 -4 -25 -23 -25h-269c0 -56 16 -125 110 -125c72 0 113 33 127 33c5 0 9 -4 11 -8zM168 306h157c0 41 -3 112 -72 112
c-78 0 -82 -84 -85 -112zM338 610l-16 -32c-4 -8 -7 -14 -13 -14c-5 0 -9 2 -14 4l-176 70c-8 3 -16 6 -16 13c0 5 3 10 5 14l31 61c4 7 7 14 14 14c5 0 10 -4 14 -6l163 -96c8 -5 13 -8 13 -14c0 -5 -3 -10 -5 -14z" />
    <glyph glyph-name="iacute" unicode="&#xed;" horiz-adv-x="315" 
d="M234 480v-466c0 -11 -2 -14 -14 -14h-99c-12 0 -14 3 -14 14v387h-77c-12 0 -14 3 -14 14v65c0 11 2 14 14 14h190c12 0 14 -3 14 -14zM274 638l-176 -70c-5 -2 -9 -4 -14 -4c-6 0 -9 6 -13 14l-16 32c-2 4 -5 9 -5 14c0 6 5 9 13 14l163 96c4 2 9 6 14 6
c7 0 10 -7 14 -14l31 -61c2 -4 5 -9 5 -14c0 -7 -8 -10 -16 -13z" />
    <glyph glyph-name="icircumflex" unicode="&#xee;" horiz-adv-x="315" 
d="M234 480v-466c0 -11 -2 -14 -14 -14h-99c-12 0 -14 3 -14 14v387h-77c-12 0 -14 3 -14 14v65c0 11 2 14 14 14h190c12 0 14 -3 14 -14zM271 609l-19 -32c-7 -12 -10 -13 -14 -13c-5 0 -9 3 -14 6l-86 49l-86 -49c-5 -3 -9 -6 -14 -6c-4 0 -7 1 -14 13l-19 32
c-2 3 -6 9 -6 14c0 6 7 10 12 14l113 89c4 3 9 8 14 8s10 -5 14 -8l113 -89c5 -4 12 -8 12 -14c0 -5 -4 -11 -6 -14z" />
    <glyph glyph-name="idieresis" unicode="&#xef;" horiz-adv-x="315" 
d="M234 480v-466c0 -11 -2 -14 -14 -14h-99c-12 0 -14 3 -14 14v387h-77c-12 0 -14 3 -14 14v65c0 11 2 14 14 14h190c12 0 14 -3 14 -14zM119 652c0 -38 -31 -69 -69 -69s-69 31 -69 69s30 69 69 69c38 0 69 -31 69 -69zM296 652c0 -38 -31 -69 -69 -69s-69 31 -69 69
s30 69 69 69s69 -32 69 -69z" />
    <glyph glyph-name="igrave" unicode="&#xec;" horiz-adv-x="315" 
d="M234 480v-466c0 -11 -2 -14 -14 -14h-99c-12 0 -14 3 -14 14v387h-77c-12 0 -14 3 -14 14v65c0 11 2 14 14 14h190c12 0 14 -3 14 -14zM245 610l-16 -32c-4 -8 -7 -14 -13 -14c-5 0 -9 2 -14 4l-176 70c-8 3 -16 6 -16 13c0 5 3 10 5 14l31 61c4 7 7 14 14 14
c5 0 10 -4 14 -6l163 -96c8 -5 13 -8 13 -14c0 -5 -3 -10 -5 -14z" />
    <glyph glyph-name="ntilde" unicode="&#xf1;" horiz-adv-x="537" 
d="M467 365v-351c0 -11 -2 -14 -14 -14h-99c-12 0 -14 3 -14 14v308c0 38 -5 84 -56 84c-42 0 -75 -29 -88 -41v-351c0 -11 -2 -14 -14 -14h-99c-12 0 -14 3 -14 14v302c0 141 -19 133 -19 156c0 5 4 9 11 11l76 25c6 2 11 3 15 3c13 0 21 -22 32 -69c29 26 74 69 153 69
c55 0 130 -25 130 -146zM369 715l47 -24c3 -2 7 -5 7 -9c0 -5 -33 -94 -105 -94c-48 0 -68 35 -96 35c-30 0 -35 -36 -45 -36c-4 0 -6 1 -9 3l-47 24c-4 2 -7 5 -7 8s29 94 103 94c50 0 75 -35 102 -35s31 36 43 36c2 0 5 -1 7 -2z" />
    <glyph glyph-name="oacute" unicode="&#xf3;" horiz-adv-x="519" 
d="M259 83c70 0 82 70 82 164c0 93 -13 164 -82 164s-82 -71 -82 -164s12 -164 82 -164zM476 247c0 -161 -82 -264 -217 -264s-217 103 -217 264s82 264 217 264c134 0 217 -103 217 -264zM391 638l-176 -70c-5 -2 -9 -4 -14 -4c-6 0 -9 6 -13 14l-16 32c-2 4 -5 9 -5 14
c0 6 5 9 13 14l163 96c4 2 9 6 14 6c7 0 10 -7 14 -14l31 -61c2 -4 5 -9 5 -14c0 -7 -8 -10 -16 -13z" />
    <glyph glyph-name="ocircumflex" unicode="&#xf4;" horiz-adv-x="519" 
d="M259 83c70 0 82 70 82 164c0 93 -13 164 -82 164s-82 -71 -82 -164s12 -164 82 -164zM476 247c0 -161 -82 -264 -217 -264s-217 103 -217 264s82 264 217 264c134 0 217 -103 217 -264zM393 609l-19 -32c-7 -12 -10 -13 -14 -13c-5 0 -9 3 -14 6l-86 49l-86 -49
c-5 -3 -9 -6 -14 -6c-4 0 -7 1 -14 13l-19 32c-2 3 -6 9 -6 14c0 6 7 10 12 14l113 89c4 3 9 8 14 8s10 -5 14 -8l113 -89c5 -4 12 -8 12 -14c0 -5 -4 -11 -6 -14z" />
    <glyph glyph-name="odieresis" unicode="&#xf6;" horiz-adv-x="519" 
d="M259 83c70 0 82 70 82 164c0 93 -13 164 -82 164s-82 -71 -82 -164s12 -164 82 -164zM476 247c0 -161 -82 -264 -217 -264s-217 103 -217 264s82 264 217 264c134 0 217 -103 217 -264zM241 652c0 -38 -31 -69 -69 -69s-69 31 -69 69s30 69 69 69c38 0 69 -31 69 -69z
M418 652c0 -38 -31 -69 -69 -69s-69 31 -69 69s30 69 69 69s69 -32 69 -69z" />
    <glyph glyph-name="ograve" unicode="&#xf2;" horiz-adv-x="519" 
d="M259 83c70 0 82 70 82 164c0 93 -13 164 -82 164s-82 -71 -82 -164s12 -164 82 -164zM476 247c0 -161 -82 -264 -217 -264s-217 103 -217 264s82 264 217 264c134 0 217 -103 217 -264zM347 610l-16 -32c-4 -8 -7 -14 -13 -14c-5 0 -9 2 -14 4l-176 70c-8 3 -16 6 -16 13
c0 5 3 10 5 14l31 61c4 7 7 14 14 14c5 0 10 -4 14 -6l163 -96c8 -5 13 -8 13 -14c0 -5 -3 -10 -5 -14z" />
    <glyph glyph-name="otilde" unicode="&#xf5;" horiz-adv-x="519" 
d="M259 83c70 0 82 70 82 164c0 93 -13 164 -82 164s-82 -71 -82 -164s12 -164 82 -164zM476 247c0 -161 -82 -264 -217 -264s-217 103 -217 264s82 264 217 264c134 0 217 -103 217 -264zM360 715l47 -24c3 -2 7 -5 7 -9c0 -5 -33 -94 -105 -94c-48 0 -68 35 -96 35
c-30 0 -35 -36 -45 -36c-4 0 -6 1 -9 3l-47 24c-4 2 -7 5 -7 8s29 94 103 94c50 0 75 -35 102 -35s31 36 43 36c2 0 5 -1 7 -2z" />
    <glyph glyph-name="scaron" unicode="&#x161;" horiz-adv-x="426" 
d="M377 449l-23 -55c-2 -5 -7 -9 -8 -9c-3 0 -52 26 -116 26c-38 0 -66 -14 -66 -48c0 -54 90 -50 161 -97c39 -26 67 -64 67 -122c0 -92 -65 -161 -171 -161c-74 0 -188 38 -188 65c0 3 4 9 5 13l22 57c2 5 4 9 8 9s81 -44 143 -44c33 0 61 14 61 50c0 58 -98 58 -164 102
c-30 20 -59 55 -59 113c0 91 69 163 177 163c61 0 156 -26 156 -49c0 -3 -3 -9 -5 -13zM341 661l-113 -89c-4 -3 -9 -8 -14 -8s-10 5 -14 8l-113 89c-5 4 -12 8 -12 14c0 5 4 11 6 14l19 32c7 12 10 13 14 13c5 0 9 -3 14 -6l86 -49l86 49c5 3 9 6 14 6c4 0 7 -1 14 -13
l19 -32c2 -3 6 -9 6 -14c0 -6 -7 -10 -12 -14z" />
    <glyph glyph-name="uacute" unicode="&#xfa;" horiz-adv-x="537" 
d="M473 11l-76 -25c-6 -2 -11 -3 -15 -3c-13 0 -21 19 -32 59c-27 -24 -74 -59 -153 -59c-55 0 -130 25 -130 146v344c0 14 7 15 19 18l84 17c3 0 13 3 16 3c6 0 8 -4 8 -21v-318c0 -38 5 -84 56 -84c42 0 75 22 88 31v354c0 14 7 15 19 18l84 17c3 0 13 3 17 3
c5 0 7 -4 7 -21v-312c0 -141 19 -133 19 -156c0 -5 -4 -9 -11 -11zM400 638l-176 -70c-5 -2 -9 -4 -14 -4c-6 0 -9 6 -13 14l-16 32c-2 4 -5 9 -5 14c0 6 5 9 13 14l163 96c4 2 9 6 14 6c7 0 10 -7 14 -14l31 -61c2 -4 5 -9 5 -14c0 -7 -8 -10 -16 -13z" />
    <glyph glyph-name="ucircumflex" unicode="&#xfb;" horiz-adv-x="537" 
d="M473 11l-76 -25c-6 -2 -11 -3 -15 -3c-13 0 -21 19 -32 59c-27 -24 -74 -59 -153 -59c-55 0 -130 25 -130 146v344c0 14 7 15 19 18l84 17c3 0 13 3 16 3c6 0 8 -4 8 -21v-318c0 -38 5 -84 56 -84c42 0 75 22 88 31v354c0 14 7 15 19 18l84 17c3 0 13 3 17 3
c5 0 7 -4 7 -21v-312c0 -141 19 -133 19 -156c0 -5 -4 -9 -11 -11zM402 609l-19 -32c-7 -12 -10 -13 -14 -13c-5 0 -9 3 -14 6l-86 49l-86 -49c-5 -3 -9 -6 -14 -6c-4 0 -7 1 -14 13l-19 32c-2 3 -6 9 -6 14c0 6 7 10 12 14l113 89c4 3 9 8 14 8s10 -5 14 -8l113 -89
c5 -4 12 -8 12 -14c0 -5 -4 -11 -6 -14z" />
    <glyph glyph-name="udieresis" unicode="&#xfc;" horiz-adv-x="537" 
d="M473 11l-76 -25c-6 -2 -11 -3 -15 -3c-13 0 -21 19 -32 59c-27 -24 -74 -59 -153 -59c-55 0 -130 25 -130 146v344c0 14 7 15 19 18l84 17c3 0 13 3 16 3c6 0 8 -4 8 -21v-318c0 -38 5 -84 56 -84c42 0 75 22 88 31v354c0 14 7 15 19 18l84 17c3 0 13 3 17 3
c5 0 7 -4 7 -21v-312c0 -141 19 -133 19 -156c0 -5 -4 -9 -11 -11zM250 652c0 -38 -31 -69 -69 -69s-69 31 -69 69s30 69 69 69c38 0 69 -31 69 -69zM427 652c0 -38 -31 -69 -69 -69s-69 31 -69 69s30 69 69 69s69 -32 69 -69z" />
    <glyph glyph-name="ugrave" unicode="&#xf9;" horiz-adv-x="537" 
d="M473 11l-76 -25c-6 -2 -11 -3 -15 -3c-13 0 -21 19 -32 59c-27 -24 -74 -59 -153 -59c-55 0 -130 25 -130 146v344c0 14 7 15 19 18l84 17c3 0 13 3 16 3c6 0 8 -4 8 -21v-318c0 -38 5 -84 56 -84c42 0 75 22 88 31v354c0 14 7 15 19 18l84 17c3 0 13 3 17 3
c5 0 7 -4 7 -21v-312c0 -141 19 -133 19 -156c0 -5 -4 -9 -11 -11zM356 610l-16 -32c-4 -8 -7 -14 -13 -14c-5 0 -9 2 -14 4l-176 70c-8 3 -16 6 -16 13c0 5 3 10 5 14l31 61c4 7 7 14 14 14c5 0 10 -4 14 -6l163 -96c8 -5 13 -8 13 -14c0 -5 -3 -10 -5 -14z" />
    <glyph glyph-name="yacute" unicode="&#xfd;" horiz-adv-x="481" 
d="M283 241l53 241c3 11 8 21 17 21c4 0 15 -1 18 -1l70 -9c15 -2 22 -3 22 -10c0 -4 -3 -10 -5 -18l-98 -361c-18 -65 -45 -167 -67 -222c-29 -73 -91 -94 -147 -94c-55 0 -136 27 -136 46c0 4 2 8 4 12l30 65c2 5 6 7 9 7c10 0 41 -25 85 -25c52 0 67 31 80 74l10 33h-42
c-13 0 -15 4 -18 13l-153 452c-1 2 -4 10 -5 17c0 8 7 9 22 11l83 9c3 0 14 1 16 1c8 0 11 -10 14 -20l65 -242c12 -45 32 -139 38 -173h2c5 39 29 155 33 173zM372 638l-176 -70c-5 -2 -9 -4 -14 -4c-6 0 -9 6 -13 14l-16 32c-2 4 -5 9 -5 14c0 6 5 9 13 14l163 96
c4 2 9 6 14 6c7 0 10 -7 14 -14l31 -61c2 -4 5 -9 5 -14c0 -7 -8 -10 -16 -13z" />
    <glyph glyph-name="ydieresis" unicode="&#xff;" horiz-adv-x="481" 
d="M283 241l53 241c3 11 8 21 17 21c4 0 15 -1 18 -1l70 -9c15 -2 22 -3 22 -10c0 -4 -3 -10 -5 -18l-98 -361c-18 -65 -45 -167 -67 -222c-29 -73 -91 -94 -147 -94c-55 0 -136 27 -136 46c0 4 2 8 4 12l30 65c2 5 6 7 9 7c10 0 41 -25 85 -25c52 0 67 31 80 74l10 33h-42
c-13 0 -15 4 -18 13l-153 452c-1 2 -4 10 -5 17c0 8 7 9 22 11l83 9c3 0 14 1 16 1c8 0 11 -10 14 -20l65 -242c12 -45 32 -139 38 -173h2c5 39 29 155 33 173zM222 652c0 -38 -31 -69 -69 -69s-69 31 -69 69s30 69 69 69c38 0 69 -31 69 -69zM399 652
c0 -38 -31 -69 -69 -69s-69 31 -69 69s30 69 69 69s69 -32 69 -69z" />
    <glyph glyph-name="zcaron" unicode="&#x17e;" horiz-adv-x="426" 
d="M410 84l-29 -71c-3 -8 -10 -13 -14 -13h-333c-6 0 -10 4 -10 10v75l230 304h-202c-5 0 -7 6 -7 13v78c0 10 3 14 14 14h317c8 0 17 -4 17 -10v-78l-226 -301h228c19 0 19 -7 19 -10c0 -5 -3 -9 -4 -11zM341 661l-113 -89c-4 -3 -9 -8 -14 -8s-10 5 -14 8l-113 89
c-5 4 -12 8 -12 14c0 5 4 11 6 14l19 32c7 12 10 13 14 13c5 0 9 -3 14 -6l86 -49l86 49c5 3 9 6 14 6c4 0 7 -1 14 -13l19 -32c2 -3 6 -9 6 -14c0 -6 -7 -10 -12 -14z" />
    <glyph glyph-name="Delta" unicode="&#x2206;" horiz-adv-x="650" 
d="M27 0v67l234 625h134l227 -624v-68h-595zM144 90h356l-117 307c-16 52 -47 133 -58 175h-4c-8 -34 -37 -107 -53 -160z" />
    <glyph glyph-name="Omega" unicode="&#x2126;" horiz-adv-x="709" 
d="M179 91v3c-63 55 -125 151 -125 278c0 175 125 315 303 315c189 0 297 -159 297 -310c0 -129 -63 -229 -127 -283v-3h140v-91h-258v67c67 42 130 134 130 287c0 122 -63 240 -183 240c-113 0 -187 -105 -187 -244c0 -141 62 -243 130 -283v-67h-259v91h139z" />
    <glyph glyph-name="pi" unicode="&#x3c0;" horiz-adv-x="590" 
d="M566 412h-73v-266c0 -75 6 -117 13 -146h-109c-12 19 -17 67 -17 139v273h-148c-5 -111 -31 -315 -66 -412h-110c34 110 61 299 64 412c-51 0 -80 -4 -101 -11l-14 75c25 18 74 31 158 31h412z" />
    <glyph glyph-name="Euro" unicode="&#x20ac;" horiz-adv-x="560" 
d="M419 275c0 -17 -3 -20 -20 -20h-149c10 -105 40 -164 122 -164c55 0 86 34 106 34c4 0 7 -3 11 -10l29 -54c3 -6 5 -10 5 -15c0 -17 -65 -62 -158 -62c-148 0 -227 87 -243 271h-60c-17 0 -20 3 -20 20v17c0 17 3 20 20 20h57v17c0 15 0 30 1 44h-57c-18 0 -21 4 -21 20
v17c0 17 4 20 21 20h62c22 162 102 255 240 255c77 0 156 -51 156 -72c0 -4 -1 -7 -5 -14l-35 -55c-4 -6 -7 -10 -11 -10c-24 0 -51 43 -103 43c-67 0 -106 -40 -117 -147h149c17 0 20 -3 20 -20v-17c0 -17 -3 -20 -20 -20h-153v-18c0 -15 1 -29 1 -43h152
c17 0 20 -3 20 -20v-17z" />
    <glyph glyph-name="estimated" unicode="&#x212e;" horiz-adv-x="846" 
d="M813 324h-632c-3 0 -5 -1 -5 -4v-191c0 -8 3 -16 8 -22c62 -63 146 -104 239 -104c101 0 190 46 252 117h56c-70 -82 -183 -136 -309 -136c-215 0 -389 156 -389 350s174 351 389 351c216 0 391 -157 391 -351v-10zM669 349v192c0 9 -3 17 -9 23
c-61 60 -144 100 -237 100c-92 0 -176 -41 -238 -103c-6 -6 -9 -15 -9 -24v-188c0 -2 2 -6 5 -6h484c3 0 4 4 4 6z" />
    <glyph glyph-name="partialdiff" unicode="&#x2202;" horiz-adv-x="563" 
d="M101 619l-33 82c31 24 88 56 179 56c142 0 268 -125 268 -369c0 -235 -100 -401 -274 -401c-138 0 -203 124 -203 229c0 153 96 251 213 251c85 0 137 -57 152 -83h1c1 9 1 26 1 35c0 135 -71 246 -172 246c-62 0 -105 -26 -132 -46zM251 80h2c79 0 129 109 140 209
c-11 33 -54 89 -120 89c-71 0 -124 -77 -124 -165c0 -75 41 -133 102 -133z" />
    <glyph glyph-name="product" unicode="&#x220f;" horiz-adv-x="709" 
d="M685 575h-104v-668h-111v668h-231v-668h-112v668h-103v101h661v-101z" />
    <glyph glyph-name="summation" unicode="&#x2211;" horiz-adv-x="554" 
d="M534 -93h-512v71l247 313l-237 307v78h485v-95h-332v-4l211 -269l-232 -295v-3h370v-103z" />
    <glyph glyph-name="uni2219" unicode="&#x2219;" 
d="M354 256c0 -42 -35 -76 -76 -76c-42 0 -77 34 -77 76s34 77 77 77c42 0 76 -35 76 -77z" />
    <glyph glyph-name="radical" unicode="&#x221a;" horiz-adv-x="582" 
d="M589 809l-223 -947h-91l-151 430l-73 -29l-20 63l160 64l110 -324c7 -28 14 -58 19 -78l2 -1c3 20 8 52 15 84l173 738h79z" />
    <glyph glyph-name="infinity" unicode="&#x221e;" horiz-adv-x="764" 
d="M716 280v-1c0 -104 -76 -166 -156 -166c-58 0 -111 29 -177 113c-51 -62 -103 -113 -183 -113s-153 67 -153 162c0 96 70 165 161 165c74 0 127 -47 179 -111c43 49 93 111 179 111c86 -1 150 -64 150 -160zM208 175h2c57 0 100 53 138 97c-41 54 -78 107 -144 107
c-57 0 -92 -46 -92 -105c0 -54 41 -99 96 -99zM559 379h-1c-61 0 -107 -65 -139 -101c60 -73 94 -103 144 -103c56 0 88 54 88 100c0 61 -38 104 -92 104z" />
    <glyph glyph-name="integral" unicode="&#x222b;" horiz-adv-x="379" 
d="M360 822l-13 -77c-9 5 -22 9 -36 9c-18 0 -37 -7 -50 -24c-22 -27 -28 -82 -28 -165c0 -156 14 -300 14 -470c0 -95 -16 -157 -37 -194c-26 -47 -74 -66 -120 -66c-29 0 -59 9 -73 17l15 79c9 -4 25 -11 43 -11c17 0 34 6 44 20c19 24 30 64 30 154
c0 173 -15 320 -15 482c0 111 16 172 58 215c27 30 69 43 109 43c24 0 47 -7 59 -12z" />
    <glyph glyph-name="approxequal" unicode="&#x2248;" horiz-adv-x="548" 
d="M466 435l41 -38c-31 -57 -76 -99 -133 -99c-40 0 -67 14 -112 40c-29 18 -55 33 -87 33c-45 0 -70 -35 -95 -71l-41 37c30 57 82 98 142 98c48 0 80 -22 106 -37c36 -20 56 -35 88 -35c39 0 64 28 91 72zM466 255l41 -38c-31 -56 -75 -98 -133 -98c-40 0 -68 15 -112 40
c-30 18 -55 33 -87 33c-45 0 -70 -35 -95 -71l-41 37c30 57 82 98 142 98c48 0 80 -22 106 -36c31 -18 55 -36 88 -36c39 0 63 27 91 71z" />
    <glyph glyph-name="notequal" unicode="&#x2260;" horiz-adv-x="548" 
d="M399 497l-40 -89h140v-66h-165l-61 -135h226v-66h-252l-50 -113l-52 22l41 91h-138v66h164l60 135h-224v66h249l50 111z" />
    <glyph glyph-name="lessequal" unicode="&#x2264;" horiz-adv-x="548" 
d="M497 95l-444 219v71l444 218v-77l-377 -175v-2l377 -177v-77zM500 -9h-451v67h451v-67z" />
    <glyph glyph-name="greaterequal" unicode="&#x2265;" horiz-adv-x="548" 
d="M55 603l443 -218v-71l-443 -219v77l376 177v2l-376 175v77zM499 -9h-449v67h449v-67z" />
    <glyph glyph-name="lozenge" unicode="&#x25ca;" horiz-adv-x="582" 
d="M531 337l-198 -384h-89l-194 384l198 386h89zM432 335l-121 242c-7 17 -15 40 -19 55h-3c-4 -16 -11 -36 -19 -55l-121 -237l122 -246c8 -19 15 -40 17 -52h4c4 13 12 40 18 51z" />
    <glyph glyph-name="uni02C9" unicode="&#x2c9;" horiz-adv-x="335" 
d="M290 673v-42c0 -17 -2 -20 -20 -20h-205c-16 0 -20 3 -20 20v42c0 18 3 20 20 20h205c18 0 20 -3 20 -20z" />
    <glyph glyph-name="uni00AD" unicode="&#xad;" horiz-adv-x="370" 
d="M328 292v-73c0 -18 -3 -21 -21 -21h-244c-18 0 -21 3 -21 21v73c0 18 3 21 21 21h244c18 0 21 -3 21 -21z" />
    <glyph glyph-name="uni03A9" unicode="&#x3a9;" horiz-adv-x="709" 
d="M179 91v3c-63 55 -125 151 -125 278c0 175 125 315 303 315c189 0 297 -159 297 -310c0 -129 -63 -229 -127 -283v-3h140v-91h-258v67c67 42 130 134 130 287c0 122 -63 240 -183 240c-113 0 -187 -105 -187 -244c0 -141 62 -243 130 -283v-67h-259v91h139z" />
    <glyph glyph-name="uni00A0" unicode="&#xa0;" horiz-adv-x="296" 
 />
    <glyph glyph-name="afii61289" unicode="&#x2113;" horiz-adv-x="504" 
d="M437 167l47 -47c-50 -96 -124 -133 -202 -133c-116 0 -165 75 -175 163v11c-17 -13 -35 -28 -53 -41l-29 60c28 24 56 44 80 67v247c0 175 80 245 172 245c93 0 136 -76 136 -169c0 -117 -78 -227 -199 -341v-37c2 -78 43 -115 94 -115c56 0 102 46 129 90zM214 500v-168
c72 80 125 166 125 241c0 52 -15 86 -58 86c-31 0 -67 -36 -67 -159z" />
    <glyph glyph-name="uni03BC" unicode="&#x3bc;" horiz-adv-x="537" 
d="M194 -7v-167c0 -14 -7 -16 -19 -18l-84 -17c-3 -1 -13 -3 -16 -3c-6 0 -8 4 -8 21v664c0 14 7 15 19 18l84 17c3 0 13 3 16 3c6 0 8 -4 8 -21v-318c0 -38 5 -84 56 -84c42 0 75 22 88 31v354c0 14 7 15 19 18l84 17c3 0 13 3 16 3c6 0 8 -4 8 -21v-312
c0 -141 19 -133 19 -156c0 -5 -4 -9 -11 -11l-76 -25c-6 -2 -11 -3 -15 -3c-13 0 -21 19 -32 59c-23 -21 -71 -59 -114 -59c-18 0 -31 5 -42 10z" />
    <glyph glyph-name="uni2215" unicode="&#x2215;" horiz-adv-x="230" 
d="M276 659l-236 -659c-4 -11 -11 -17 -23 -17h-51c-9 0 -21 0 -21 10c0 4 2 9 4 14l237 662c5 14 15 16 23 16h51c10 0 19 -1 19 -12c0 -5 -1 -8 -3 -14z" />
    </font>
</defs>
</svg>
